Классический форум-трекер
canvas not supported
Нас вместе: 4 166 468

Ария - Кровь за кровь (1991) [ALAC|Tracks]<Heavy Metal>


 
 
RSS
Начать новую тему   Ответить на тему    Торрент-трекер NNM-Club -> Аудио и Видео -> Музыка Lossless (ALAC)
Автор Сообщение
Cecidit ®
Стаж: 7 лет 8 мес.
Сообщений: 129
Ratio: 39.772
Поблагодарили: 8806
100%
Откуда: Москва, МО Щелково
russia.gif
Ария - Кровь за кровь (1991)
Год: 1991
Жанр: Heavy Metal
Продолжительность: 00:40:00

Кодек: ALAC
Битрейт: Lossless
Тип раздачи: Tracks
Обложки: Вшиты
Кодирование: XLD + QuickTime + iTunes

«Кровь за кровь»
 — пятый студийный альбом группы Ария, последний из трёх альбомов, записанных группой в «классическом» составе (Кипелов/Маврин/Холстинин/Дубинин/Манякин). Традиционно считается самым «концептуальным» из всей дискографии группы — все песни (за исключением лирической баллады «Всё, что было») посвящены тематике сверхъестественного. Впервые за несколько лет группа использовала клавишные инструменты при записи альбома.

Состав:

Валерий Кипелов — вокал
Владимир Холстинин — гитара, синт.гитара
Виталий Дубинин — бас-гитара, бэк-вокал
Сергей Маврин — гитара, акустическая гитара
Александр Манякин — барабаны
Екатерина Болдышева — бэк-вокал (7)

Треклист:
01. Прощай, Норфолк!
02. Зомби
03. Антихрист
04. Не Хочешь, Не Верь Мне
05. Кровь За Кровь
06. Бесы
07. Всё, Что Было
08. Следуй За Мной!
Код: выделить все

Общее
Полное имя                               : /Users/Denis/Library/Containers/net.mediaarea.mediainfo.mac/Data/Music/iTunes/iTunes Media/Music/Ария/Кровь за кровь/01 Прощай, Норфолк.m4a
Формат                                   : MPEG-4
Профиль формата                          : Apple audio with iTunes info
Идентификатор кодека                     : M4A
Размер файла                             : 37,4 Мбайт
Продолжительность                        : 5 м. 20 с.
Режим общего битрейта                    : Переменный
Общий поток                              : 981 Кбит/сек
Альбом                                   : Кровь за кровь
Альбом/Исполнитель                       : Ария
Трек                                     : Прощай, Норфолк
Трек/Положение                           : 1
Трек/Всего                               : 8
Исполнитель                              : Ария
Жанр                                     : Heavy Metal
Дата записи                              : 1991
Дата пометки                             : UTC 2014-05-29 00:18:16
Программа кодирования                    : X Lossless Decoder 20140504, QuickTime 7.7.1
Обложка                                  : Yes
Примечание                               : ExactAudioCopy v0.99pb3
iTunes_CDDB_1                            : 55096108+180225+8+150+24167+44470+67335+85550+120312+135430+159040
iTunes_CDDB_TrackNumber                  : 1

Аудио
Идентификатор                            : 1
Формат                                   : ALAC
Идентификатор кодека                     : alac
Идентификатор кодека/Информация          : Apple Lossless Audio Codec
Продолжительность                        : 5 м. 20 с.
Duration_LastFrame                       : -23 мс.
Вид битрейта                             : Переменный
Битрейт                                  : 966 Кбит/сек
Каналы                                   : 2 канала
Частота                                  : 44,1 КГц
Битовая глубина                          : 16 бит
Размер потока                            : 36,9 Мбайт (98%)
Язык                                     : English
Дата пометки                             : UTC 2014-05-29 00:18:16

Общее
Полное имя                               : /Users/Denis/Library/Containers/net.mediaarea.mediainfo.mac/Data/Music/iTunes/iTunes Media/Music/Ария/Кровь за кровь/02 Зомби.m4a
Формат                                   : MPEG-4
Профиль формата                          : Apple audio with iTunes info
Идентификатор кодека                     : M4A
Размер файла                             : 31,3 Мбайт
Продолжительность                        : 4 м. 30 с.
Режим общего битрейта                    : Переменный
Общий поток                              : 969 Кбит/сек
Альбом                                   : Кровь за кровь
Альбом/Исполнитель                       : Ария
Трек                                     : Зомби
Трек/Положение                           : 2
Трек/Всего                               : 8
Исполнитель                              : Ария
Жанр                                     : Heavy Metal
Дата записи                              : 1991
Дата пометки                             : UTC 2014-05-29 00:18:19
Программа кодирования                    : X Lossless Decoder 20140504, QuickTime 7.7.1
Обложка                                  : Yes
Примечание                               : ExactAudioCopy v0.99pb3
iTunes_CDDB_1                            : 55096108+180225+8+150+24167+44470+67335+85550+120312+135430+159040
iTunes_CDDB_TrackNumber                  : 2

Аудио
Идентификатор                            : 1
Формат                                   : ALAC
Идентификатор кодека                     : alac
Идентификатор кодека/Информация          : Apple Lossless Audio Codec
Продолжительность                        : 4 м. 30 с.
Duration_LastFrame                       : -38 мс.
Вид битрейта                             : Переменный
Битрейт                                  : 952 Кбит/сек
Каналы                                   : 2 канала
Частота                                  : 44,1 КГц
Битовая глубина                          : 16 бит
Размер потока                            : 30,7 Мбайт (98%)
Язык                                     : English
Дата пометки                             : UTC 2014-05-29 00:18:19

Общее
Полное имя                               : /Users/Denis/Library/Containers/net.mediaarea.mediainfo.mac/Data/Music/iTunes/iTunes Media/Music/Ария/Кровь за кровь/03 Антихрист.m4a
Формат                                   : MPEG-4
Профиль формата                          : Apple audio with iTunes info
Идентификатор кодека                     : M4A
Размер файла                             : 31,9 Мбайт
Продолжительность                        : 5 м. 4 с.
Режим общего битрейта                    : Переменный
Общий поток                              : 879 Кбит/сек
Альбом                                   : Кровь за кровь
Альбом/Исполнитель                       : Ария
Трек                                     : Антихрист
Трек/Положение                           : 3
Трек/Всего                               : 8
Исполнитель                              : Ария
Жанр                                     : Heavy Metal
Дата записи                              : 1991
Дата пометки                             : UTC 2014-05-29 00:18:21
Программа кодирования                    : X Lossless Decoder 20140504, QuickTime 7.7.1
Обложка                                  : Yes
Примечание                               : ExactAudioCopy v0.99pb3
iTunes_CDDB_1                            : 55096108+180225+8+150+24167+44470+67335+85550+120312+135430+159040
iTunes_CDDB_TrackNumber                  : 3

Аудио
Идентификатор                            : 1
Формат                                   : ALAC
Идентификатор кодека                     : alac
Идентификатор кодека/Информация          : Apple Lossless Audio Codec
Продолжительность                        : 5 м. 4 с.
Duration_LastFrame                       : -58 мс.
Вид битрейта                             : Переменный
Битрейт                                  : 864 Кбит/сек
Каналы                                   : 2 канала
Частота                                  : 44,1 КГц
Битовая глубина                          : 16 бит
Размер потока                            : 31,4 Мбайт (98%)
Язык                                     : English
Дата пометки                             : UTC 2014-05-29 00:18:21

Общее
Полное имя                               : /Users/Denis/Library/Containers/net.mediaarea.mediainfo.mac/Data/Music/iTunes/iTunes Media/Music/Ария/Кровь за кровь/04 Не хочешь, не верь мне.m4a
Формат                                   : MPEG-4
Профиль формата                          : Apple audio with iTunes info
Идентификатор кодека                     : M4A
Размер файла                             : 28,6 Мбайт
Продолжительность                        : 4 м. 2 с.
Режим общего битрейта                    : Переменный
Общий поток                              : 987 Кбит/сек
Альбом                                   : Кровь за кровь
Альбом/Исполнитель                       : Ария
Трек                                     : Не хочешь, не верь мне
Трек/Положение                           : 4
Трек/Всего                               : 8
Исполнитель                              : Ария
Жанр                                     : Heavy Metal
Дата записи                              : 1991
Дата пометки                             : UTC 2014-05-29 00:18:23
Программа кодирования                    : X Lossless Decoder 20140504, QuickTime 7.7.1
Обложка                                  : Yes
Примечание                               : ExactAudioCopy v0.99pb3
iTunes_CDDB_1                            : 55096108+180225+8+150+24167+44470+67335+85550+120312+135430+159040
iTunes_CDDB_TrackNumber                  : 4

Аудио
Идентификатор                            : 1
Формат                                   : ALAC
Идентификатор кодека                     : alac
Идентификатор кодека/Информация          : Apple Lossless Audio Codec
Продолжительность                        : 4 м. 2 с.
Duration_LastFrame                       : -14 мс.
Вид битрейта                             : Переменный
Битрейт                                  : 968 Кбит/сек
Каналы                                   : 2 канала
Частота                                  : 44,1 КГц
Битовая глубина                          : 16 бит
Размер потока                            : 28,0 Мбайт (98%)
Язык                                     : English
Дата пометки                             : UTC 2014-05-29 00:18:23

Общее
Полное имя                               : /Users/Denis/Library/Containers/net.mediaarea.mediainfo.mac/Data/Music/iTunes/iTunes Media/Music/Ария/Кровь за кровь/05 Кровь за кровь.m4a
Формат                                   : MPEG-4
Профиль формата                          : Apple audio with iTunes info
Идентификатор кодека                     : M4A
Размер файла                             : 49,4 Мбайт
Продолжительность                        : 7 м. 43 с.
Режим общего битрейта                    : Переменный
Общий поток                              : 895 Кбит/сек
Альбом                                   : Кровь за кровь
Альбом/Исполнитель                       : Ария
Трек                                     : Кровь за кровь
Трек/Положение                           : 5
Трек/Всего                               : 8
Исполнитель                              : Ария
Жанр                                     : Heavy Metal
Дата записи                              : 1991
Дата пометки                             : UTC 2014-05-29 00:18:24
Программа кодирования                    : X Lossless Decoder 20140504, QuickTime 7.7.1
Обложка                                  : Yes
Примечание                               : ExactAudioCopy v0.99pb3
iTunes_CDDB_1                            : 55096108+180225+8+150+24167+44470+67335+85550+120312+135430+159040
iTunes_CDDB_TrackNumber                  : 5

Аудио
Идентификатор                            : 1
Формат                                   : ALAC
Идентификатор кодека                     : alac
Идентификатор кодека/Информация          : Apple Lossless Audio Codec
Продолжительность                        : 7 м. 43 с.
Duration_LastFrame                       : -70 мс.
Вид битрейта                             : Переменный
Битрейт                                  : 884 Кбит/сек
Каналы                                   : 2 канала
Частота                                  : 44,1 КГц
Битовая глубина                          : 16 бит
Размер потока                            : 48,9 Мбайт (99%)
Язык                                     : English
Дата пометки                             : UTC 2014-05-29 00:18:24

Общее
Полное имя                               : /Users/Denis/Library/Containers/net.mediaarea.mediainfo.mac/Data/Music/iTunes/iTunes Media/Music/Ария/Кровь за кровь/06 Бесы.m4a
Формат                                   : MPEG-4
Профиль формата                          : Apple audio with iTunes info
Идентификатор кодека                     : M4A
Размер файла                             : 22,9 Мбайт
Продолжительность                        : 3 м. 21 с.
Режим общего битрейта                    : Переменный
Общий поток                              : 952 Кбит/сек
Альбом                                   : Кровь за кровь
Альбом/Исполнитель                       : Ария
Трек                                     : Бесы
Трек/Положение                           : 6
Трек/Всего                               : 8
Исполнитель                              : Ария
Жанр                                     : Heavy Metal
Дата записи                              : 1991
Дата пометки                             : UTC 2014-05-29 00:18:28
Программа кодирования                    : X Lossless Decoder 20140504, QuickTime 7.7.1
Обложка                                  : Yes
Примечание                               : ExactAudioCopy v0.99pb3
iTunes_CDDB_1                            : 55096108+180225+8+150+24167+44470+67335+85550+120312+135430+159040
iTunes_CDDB_TrackNumber                  : 6

Аудио
Идентификатор                            : 1
Формат                                   : ALAC
Идентификатор кодека                     : alac
Идентификатор кодека/Информация          : Apple Lossless Audio Codec
Продолжительность                        : 3 м. 21 с.
Duration_LastFrame                       : -69 мс.
Вид битрейта                             : Переменный
Битрейт                                  : 929 Кбит/сек
Каналы                                   : 2 канала
Частота                                  : 44,1 КГц
Битовая глубина                          : 16 бит
Размер потока                            : 22,3 Мбайт (98%)
Язык                                     : English
Дата пометки                             : UTC 2014-05-29 00:18:28

Общее
Полное имя                               : /Users/Denis/Library/Containers/net.mediaarea.mediainfo.mac/Data/Music/iTunes/iTunes Media/Music/Ария/Кровь за кровь/07 Всё, что было.m4a
Формат                                   : MPEG-4
Профиль формата                          : Apple audio with iTunes info
Идентификатор кодека                     : M4A
Размер файла                             : 36,5 Мбайт
Продолжительность                        : 5 м. 14 с.
Режим общего битрейта                    : Переменный
Общий поток                              : 973 Кбит/сек
Альбом                                   : Кровь за кровь
Альбом/Исполнитель                       : Ария
Трек                                     : Всё, что было
Трек/Положение                           : 7
Трек/Всего                               : 8
Исполнитель                              : Ария
Жанр                                     : Heavy Metal
Дата записи                              : 1991
Дата пометки                             : UTC 2014-05-29 00:18:29
Программа кодирования                    : X Lossless Decoder 20140504, QuickTime 7.7.1
Обложка                                  : Yes
Примечание                               : ExactAudioCopy v0.99pb3
iTunes_CDDB_1                            : 55096108+180225+8+150+24167+44470+67335+85550+120312+135430+159040
iTunes_CDDB_TrackNumber                  : 7

Аудио
Идентификатор                            : 1
Формат                                   : ALAC
Идентификатор кодека                     : alac
Идентификатор кодека/Информация          : Apple Lossless Audio Codec
Продолжительность                        : 5 м. 14 с.
Duration_LastFrame                       : -63 мс.
Вид битрейта                             : Переменный
Битрейт                                  : 957 Кбит/сек
Каналы                                   : 2 канала
Частота                                  : 44,1 КГц
Битовая глубина                          : 16 бит
Размер потока                            : 35,9 Мбайт (98%)
Язык                                     : English
Дата пометки                             : UTC 2014-05-29 00:18:29

Общее
Полное имя                               : /Users/Denis/Library/Containers/net.mediaarea.mediainfo.mac/Data/Music/iTunes/iTunes Media/Music/Ария/Кровь за кровь/08 Следуй за мной.m4a
Формат                                   : MPEG-4
Профиль формата                          : Apple audio with iTunes info
Идентификатор кодека                     : M4A
Размер файла                             : 34,5 Мбайт
Продолжительность                        : 4 м. 42 с.
Режим общего битрейта                    : Переменный
Общий поток                              : 1024 Кбит/сек
Альбом                                   : Кровь за кровь
Альбом/Исполнитель                       : Ария
Трек                                     : Следуй за мной
Трек/Положение                           : 8
Трек/Всего                               : 8
Исполнитель                              : Ария
Жанр                                     : Heavy Metal
Дата записи                              : 1991
Дата пометки                             : UTC 2014-05-29 00:18:33
Программа кодирования                    : X Lossless Decoder 20140504, QuickTime 7.7.1
Обложка                                  : Yes
Примечание                               : ExactAudioCopy v0.99pb3
iTunes_CDDB_1                            : 55096108+180225+8+150+24167+44470+67335+85550+120312+135430+159040
iTunes_CDDB_TrackNumber                  : 8

Аудио
Идентификатор                            : 1
Формат                                   : ALAC
Идентификатор кодека                     : alac
Идентификатор кодека/Информация          : Apple Lossless Audio Codec
Продолжительность                        : 4 м. 42 с.
Duration_LastFrame                       : -74 мс.
Вид битрейта                             : Переменный
Битрейт                                  : 1008 Кбит/сек
Каналы                                   : 2 канала
Частота                                  : 44,1 КГц
Битовая глубина                          : 16 бит
Размер потока                            : 33,9 Мбайт (98%)
Язык                                     : English
Дата пометки                             : UTC 2014-05-29 00:18:33
Код: выделить все

-----------------------

DON'T MODIFY THIS FILE

-----------------------

PERFORMER: auCDtect Task Manager, ver. 1.6.0 RC1 build 1.6.0.1
Copyright (c) 2008-2010 y-soft. All rights reserved
http://y-soft.org

ANALYZER: auCDtect: CD records authenticity detector, version 0.8.2
Copyright (c) 2004 Oleg Berngardt. All rights reserved.
Copyright (c) 2004 Alexander Djourik. All rights reserved.

FILE: 08 Следуй за мной.m4a
  Size: 36166106 Hash: D27327A3F4C7F7951236AC24200200DF Accuracy: -m8
  Conclusion: CDDA 100%
  Signature: F3D66EBE61BDF50CD07F4E8FAF1A0D5BBB072B86
FILE: 07 Всё, что было.m4a
  Size: 38278973 Hash: 3E8D69E5E37CEE911F0F33117122C877 Accuracy: -m8
  Conclusion: CDDA 100%
  Signature: D02610C9377425E3A82C0632CA314971F67F0D4A
FILE: 06 Бесы.m4a
  Size: 23997920 Hash: EFF84B8F902575F952B934A3BB106AF4 Accuracy: -m8
  Conclusion: CDDA 100%
  Signature: 8E84FD0A1C8AF56C43D2C83B40FF88A9F8BE4BB9
FILE: 05 Кровь за кровь.m4a
  Size: 51838418 Hash: 290E4AFACD67D57EC079638D32E4D20D Accuracy: -m8
  Conclusion: CDDA 100%
  Signature: 329A4C53E8D05F6F39AC48ACA0F1BE6EB49710E3
FILE: 04 Не хочешь, не верь мне.m4a
  Size: 29970840 Hash: 9EBEADBC797976F1FD9920411CDC79ED Accuracy: -m8
  Conclusion: CDDA 100%
  Signature: 4734672967D4CAE97E0C7431A718F5FAF558D2A9
FILE: 03 Антихрист.m4a
  Size: 33496482 Hash: 31736CAA3E84DFC680D81ED7C6A72631 Accuracy: -m8
  Conclusion: CDDA 100%
  Signature: 76827AA9302124C9F669D6783DAE3F230BD7281B
FILE: 02 Зомби.m4a
  Size: 32790909 Hash: D110D9264B6F95989E982AEA50838D19 Accuracy: -m8
  Conclusion: CDDA 100%
  Signature: 0F31B77F0207EED87B06BABF732F8499568B9E1A
FILE: 01 Прощай, Норфолк.m4a
  Size: 39260165 Hash: D9512091AE4E59A945885D21D149661E Accuracy: -m8
  Conclusion: CDDA 100%
  Signature: 08F3C5BF2A5C14AC6C767EC9D7568DC9AC14BACC

Все номерные альбомы группы АРИЯ в ALAC/Lossless/Tracks:
1. Мания величия (1985 год)
2. C кем ты (1986 год)
3. Герой асфальта (1987 год)
4. Игра с огнем (1989 год)
5. Кровь за кровь (1991 год)
6. Ночь короче дня (1995 год)
7. Генератор зла (1998 год)
8. Химера (2001 год)
9. Крещение огнем (2003 год)
10. Армагеддон (2006 год)
11. Феникс (2011 год)


Все альбомы (номерные, концертные, синглы трибьюты и сборники) группы АРИЯ в ALAC

Время раздачи: с 20:00 до 03:00 постоянно / часто 24/7
[NNM-Club.me]_Ariya (1991) Krov' za krov'.torrent
 Торрент: Платиновая раздача  Зарегистрирован
 
Скачать


Примагнититься
 Зарегистрирован:   30 Май 2014 11:58:40
 Размер:   273 MB  (
 Рейтинг:   4.6 (Голосов: 49)
 Поблагодарили:   127
 Проверка:   Оформление проверено модератором 30 Май 2014 14:51:55
Как cкачать  ·  Как раздать  ·  Правильно оформить  ·  Поднять ратио!  
kostya3412
Стаж: 10 лет 7 мес.
Сообщений: 4
Ratio: 4.667
15.38%
Спасибо.
Edward_Elrik
Стаж: 2 года 10 мес.
Сообщений: 12
Ratio: 4.116
0.45%
Во раньше группы были не то что сейчас - Моргенштерны всякие, пукают ртом и рыгают
neo_nine
Стаж: 11 лет 5 мес.
Сообщений: 27
Ratio: 8.649
Поблагодарили: 170
100%
russia.gif
Edward_Elrik писал(а): Перейти к сообщению
Во раньше группы были не то что сейчас - Моргенштерны всякие, пукают ртом и рыгают

страшно не существование моргенштерна, а то что это нравится людям
Показать сообщения:   
Начать новую тему   Ответить на тему    Торрент-трекер NNM-Club -> Аудио и Видео -> Музыка Lossless (ALAC) Часовой пояс: GMT + 3
Страница 1 из 1