Классический форум-трекер
canvas not supported
Нас вместе: 4 172 372

Ария - Химера (2001) [ALAC|Tracks]<Heavy Metal>


 
 
RSS
Начать новую тему   Ответить на тему    Торрент-трекер NNM-Club -> Аудио и Видео -> Музыка Lossless (ALAC)
Автор Сообщение
Cecidit ®
Стаж: 7 лет 10 мес.
Сообщений: 129
Ratio: 39.772
Поблагодарили: 8816
100%
Откуда: Москва, МО Щелково
russia.gif
Ария - Химера (2001)
Год: 2001
Жанр: Heavy Metal
Продолжительность: 00:57:24

Кодек: ALAC
Битрейт: Lossless
Тип раздачи: Tracks
Обложки: Вшиты
Кодирование: XLD + QuickTime + iTunes

«Химера» — восьмой студийный альбом группы «Ария», вышедший в апреле 2001 года. Альбом выдержан в более мелодичном ключе, чем предыдущие, и содержит ряд лирических баллад. Целый ряд песен — «Штиль», «Осколок льда», «Небо тебя найдёт» — активно транслировались по радио и участвовали в хит-парадах, в частности Чартова дюжина. «Химера» стала последним альбомом перед расколом «Арии» в 2002 году. По словам Валерия Кипелова, обстановка во время записи альбома была напряжённой и разобщённой, каждый отдельно сочинял свои песни, и даже записывал и сводил свои партии отдельно.

Состав:
Валерий Кипелов — вокал
Владимир Холстинин — гитара, клавишные (1, 4, 10), соло (1, 2, 4, 5, 10)
Сергей Терентьев — гитара, соло (3, 5 — 9)
Виталий Дубинин — бас, клавишные (6, 8, 9)
Александр Манякин — барабаны

Треклист:
01. Химера
02. Небо Тебя Найдёт
03. Я Не Сошёл С Ума
04. Вампир
05. Горящая Стрела
06. Штиль
07. Путь В Никуда
08. Ворон
09. Осколок Льда
10. Тебе Дадут Знак
Код: выделить все

Общее
Полное имя                               : /Users/Denis/Library/Containers/net.mediaarea.mediainfo.mac/Data/Music/iTunes/iTunes Media/Music/Ария/Химера/01 Химера.m4a
Формат                                   : MPEG-4
Профиль формата                          : Apple audio with iTunes info
Идентификатор кодека                     : M4A
Размер файла                             : 37,4 Мбайт
Продолжительность                        : 4 м. 39 с.
Режим общего битрейта                    : Переменный
Общий поток                              : 1122 Кбит/сек
Альбом                                   : Химера
Альбом/Исполнитель                       : Ария
Трек                                     : Химера
Трек/Положение                           : 1
Трек/Всего                               : 10
Исполнитель                              : Ария
Жанр                                     : Heavy Metal
Дата записи                              : 2001
Дата кодирования                         : UTC 1973-04-29 09:03:11
Дата пометки                             : UTC 2014-05-29 08:38:45
Программа кодирования                    : X Lossless Decoder 20140504, QuickTime 7.7.1
Обложка                                  : Yes
Примечание                               : ExactAudioCopy v0.99pb3
iTunes_CDDB_1                            : 910D740A+258521+10+150+21112+45973+74858+99621+118412+143577+168213+194081+218510
iTunes_CDDB_TrackNumber                  : 1

Аудио
Идентификатор                            : 1
Формат                                   : ALAC
Идентификатор кодека                     : alac
Идентификатор кодека/Информация          : Apple Lossless Audio Codec
Продолжительность                        : 4 м. 39 с.
Duration_LastFrame                       : -75 мс.
Вид битрейта                             : Переменный
Битрейт                                  : 1014 Кбит/сек
Каналы                                   : 2 канала
Частота                                  : 44,1 КГц
Битовая глубина                          : 16 бит
Размер потока                            : 33,8 Мбайт (90%)
Язык                                     : English
Дата кодирования                         : UTC 1973-04-29 09:03:11
Дата пометки                             : UTC 2014-05-29 08:38:45

Общее
Полное имя                               : /Users/Denis/Library/Containers/net.mediaarea.mediainfo.mac/Data/Music/iTunes/iTunes Media/Music/Ария/Химера/02 Небо тебя найдёт.m4a
Формат                                   : MPEG-4
Профиль формата                          : Apple audio with iTunes info
Идентификатор кодека                     : M4A
Размер файла                             : 42,8 Мбайт
Продолжительность                        : 5 м. 31 с.
Режим общего битрейта                    : Переменный
Общий поток                              : 1084 Кбит/сек
Альбом                                   : Химера
Альбом/Исполнитель                       : Ария
Трек                                     : Небо тебя найдёт
Трек/Положение                           : 2
Трек/Всего                               : 10
Исполнитель                              : Ария
Жанр                                     : Heavy Metal
Дата записи                              : 2001
Дата кодирования                         : UTC 1974-12-02 22:03:59
Дата пометки                             : UTC 2014-05-29 08:38:49
Программа кодирования                    : X Lossless Decoder 20140504, QuickTime 7.7.1
Обложка                                  : Yes
Примечание                               : ExactAudioCopy v0.99pb3
iTunes_CDDB_1                            : 910D740A+258521+10+150+21112+45973+74858+99621+118412+143577+168213+194081+218510
iTunes_CDDB_TrackNumber                  : 2

Аудио
Идентификатор                            : 1
Формат                                   : ALAC
Идентификатор кодека                     : alac
Идентификатор кодека/Информация          : Apple Lossless Audio Codec
Продолжительность                        : 5 м. 31 с.
Duration_LastFrame                       : -8 мс.
Вид битрейта                             : Переменный
Битрейт                                  : 993 Кбит/сек
Каналы                                   : 2 канала
Частота                                  : 44,1 КГц
Битовая глубина                          : 16 бит
Размер потока                            : 39,2 Мбайт (92%)
Язык                                     : English
Дата кодирования                         : UTC 1974-12-02 22:03:59
Дата пометки                             : UTC 2014-05-29 08:38:49

Общее
Полное имя                               : /Users/Denis/Library/Containers/net.mediaarea.mediainfo.mac/Data/Music/iTunes/iTunes Media/Music/Ария/Химера/03 Я не сошёл с ума.m4a
Формат                                   : MPEG-4
Профиль формата                          : Apple audio with iTunes info
Идентификатор кодека                     : M4A
Размер файла                             : 49,3 Мбайт
Продолжительность                        : 6 м. 25 с.
Режим общего битрейта                    : Переменный
Общий поток                              : 1073 Кбит/сек
Альбом                                   : Химера
Альбом/Исполнитель                       : Ария
Трек                                     : Я не сошёл с ума
Трек/Положение                           : 3
Трек/Всего                               : 10
Исполнитель                              : Ария
Жанр                                     : Heavy Metal
Дата записи                              : 2001
Дата кодирования                         : UTC 1992-06-18 21:12:47
Дата пометки                             : UTC 2014-05-29 08:38:52
Программа кодирования                    : X Lossless Decoder 20140504, QuickTime 7.7.1
Обложка                                  : Yes
Примечание                               : ExactAudioCopy v0.99pb3
iTunes_CDDB_1                            : 910D740A+258521+10+150+21112+45973+74858+99621+118412+143577+168213+194081+218510
iTunes_CDDB_TrackNumber                  : 3

Аудио
Идентификатор                            : 1
Формат                                   : ALAC
Идентификатор кодека                     : alac
Идентификатор кодека/Информация          : Apple Lossless Audio Codec
Продолжительность                        : 6 м. 25 с.
Duration_LastFrame                       : -39 мс.
Вид битрейта                             : Переменный
Битрейт                                  : 994 Кбит/сек
Каналы                                   : 2 канала
Частота                                  : 44,1 КГц
Битовая глубина                          : 16 бит
Размер потока                            : 45,7 Мбайт (93%)
Язык                                     : English
Дата кодирования                         : UTC 1992-06-18 21:12:47
Дата пометки                             : UTC 2014-05-29 08:38:52

Общее
Полное имя                               : /Users/Denis/Library/Containers/net.mediaarea.mediainfo.mac/Data/Music/iTunes/iTunes Media/Music/Ария/Химера/04 Вампир.m4a
Формат                                   : MPEG-4
Профиль формата                          : Apple audio with iTunes info
Идентификатор кодека                     : M4A
Размер файла                             : 40,2 Мбайт
Продолжительность                        : 5 м. 30 с.
Режим общего битрейта                    : Переменный
Общий поток                              : 1023 Кбит/сек
Альбом                                   : Химера
Альбом/Исполнитель                       : Ария
Трек                                     : Вампир
Трек/Положение                           : 4
Трек/Всего                               : 10
Исполнитель                              : Ария
Жанр                                     : Heavy Metal
Дата записи                              : 2001
Дата кодирования                         : UTC 1991-05-27 12:32:15
Дата пометки                             : UTC 2014-05-29 08:38:56
Программа кодирования                    : X Lossless Decoder 20140504, QuickTime 7.7.1
Обложка                                  : Yes
Примечание                               : ExactAudioCopy v0.99pb3
iTunes_CDDB_1                            : 910D740A+258521+10+150+21112+45973+74858+99621+118412+143577+168213+194081+218510
iTunes_CDDB_TrackNumber                  : 4

Аудио
Идентификатор                            : 1
Формат                                   : ALAC
Идентификатор кодека                     : alac
Идентификатор кодека/Информация          : Apple Lossless Audio Codec
Продолжительность                        : 5 м. 30 с.
Duration_LastFrame                       : -14 мс.
Вид битрейта                             : Переменный
Битрейт                                  : 931 Кбит/сек
Каналы                                   : 2 канала
Частота                                  : 44,1 КГц
Битовая глубина                          : 16 бит
Размер потока                            : 36,7 Мбайт (91%)
Язык                                     : English
Дата кодирования                         : UTC 1991-05-27 12:32:15
Дата пометки                             : UTC 2014-05-29 08:38:56

Общее
Полное имя                               : /Users/Denis/Library/Containers/net.mediaarea.mediainfo.mac/Data/Music/iTunes/iTunes Media/Music/Ария/Химера/05 Горящая стрела.m4a
Формат                                   : MPEG-4
Профиль формата                          : Apple audio with iTunes info
Идентификатор кодека                     : M4A
Размер файла                             : 34,5 Мбайт
Продолжительность                        : 4 м. 10 с.
Режим общего битрейта                    : Переменный
Общий поток                              : 1156 Кбит/сек
Альбом                                   : Химера
Альбом/Исполнитель                       : Ария
Трек                                     : Горящая стрела
Трек/Положение                           : 5
Трек/Всего                               : 10
Исполнитель                              : Ария
Жанр                                     : Heavy Metal
Дата записи                              : 2001
Дата кодирования                         : UTC 2001-07-02 22:57:19
Дата пометки                             : UTC 2014-05-29 08:39:00
Программа кодирования                    : X Lossless Decoder 20140504, QuickTime 7.7.1
Обложка                                  : Yes
Примечание                               : ExactAudioCopy v0.99pb3
iTunes_CDDB_1                            : 910D740A+258521+10+150+21112+45973+74858+99621+118412+143577+168213+194081+218510
iTunes_CDDB_TrackNumber                  : 5

Аудио
Идентификатор                            : 1
Формат                                   : ALAC
Идентификатор кодека                     : alac
Идентификатор кодека/Информация          : Apple Lossless Audio Codec
Продолжительность                        : 4 м. 10 с.
Duration_LastFrame                       : -43 мс.
Вид битрейта                             : Переменный
Битрейт                                  : 1036 Кбит/сек
Каналы                                   : 2 канала
Частота                                  : 44,1 КГц
Битовая глубина                          : 16 бит
Размер потока                            : 31,0 Мбайт (90%)
Язык                                     : English
Дата кодирования                         : UTC 2001-07-02 22:57:19
Дата пометки                             : UTC 2014-05-29 08:39:00

Общее
Полное имя                               : /Users/Denis/Library/Containers/net.mediaarea.mediainfo.mac/Data/Music/iTunes/iTunes Media/Music/Ария/Химера/06 Штиль.m4a
Формат                                   : MPEG-4
Профиль формата                          : Apple audio with iTunes info
Идентификатор кодека                     : M4A
Размер файла                             : 41,3 Мбайт
Продолжительность                        : 5 м. 35 с.
Режим общего битрейта                    : Переменный
Общий поток                              : 1031 Кбит/сек
Альбом                                   : Химера
Альбом/Исполнитель                       : Ария
Трек                                     : Штиль
Трек/Положение                           : 6
Трек/Всего                               : 10
Исполнитель                              : Ария
Жанр                                     : Heavy Metal
Дата записи                              : 2001
Дата кодирования                         : UTC 2004-02-28 20:38:39
Дата пометки                             : UTC 2014-05-29 08:39:03
Программа кодирования                    : X Lossless Decoder 20140504, QuickTime 7.7.1
Обложка                                  : Yes
Примечание                               : ExactAudioCopy v0.99pb3
iTunes_CDDB_1                            : 910D740A+258521+10+150+21112+45973+74858+99621+118412+143577+168213+194081+218510
iTunes_CDDB_TrackNumber                  : 6

Аудио
Идентификатор                            : 1
Формат                                   : ALAC
Идентификатор кодека                     : alac
Идентификатор кодека/Информация          : Apple Lossless Audio Codec
Продолжительность                        : 5 м. 35 с.
Duration_LastFrame                       : -41 мс.
Вид битрейта                             : Переменный
Битрейт                                  : 941 Кбит/сек
Каналы                                   : 2 канала
Частота                                  : 44,1 КГц
Битовая глубина                          : 16 бит
Размер потока                            : 37,7 Мбайт (91%)
Язык                                     : English
Дата кодирования                         : UTC 2004-02-28 20:38:39
Дата пометки                             : UTC 2014-05-29 08:39:03

Общее
Полное имя                               : /Users/Denis/Library/Containers/net.mediaarea.mediainfo.mac/Data/Music/iTunes/iTunes Media/Music/Ария/Химера/07 Путь в никуда.m4a
Формат                                   : MPEG-4
Профиль формата                          : Apple audio with iTunes info
Идентификатор кодека                     : M4A
Размер файла                             : 42,2 Мбайт
Продолжительность                        : 5 м. 28 с.
Режим общего битрейта                    : Переменный
Общий поток                              : 1078 Кбит/сек
Альбом                                   : Химера
Альбом/Исполнитель                       : Ария
Трек                                     : Путь в никуда
Трек/Положение                           : 7
Трек/Всего                               : 10
Исполнитель                              : Ария
Жанр                                     : Heavy Metal
Дата записи                              : 2001
Дата кодирования                         : UTC 2012-08-31 18:02:55
Дата пометки                             : UTC 2014-05-29 08:39:07
Программа кодирования                    : X Lossless Decoder 20140504, QuickTime 7.7.1
Обложка                                  : Yes
Примечание                               : ExactAudioCopy v0.99pb3
iTunes_CDDB_1                            : 910D740A+258521+10+150+21112+45973+74858+99621+118412+143577+168213+194081+218510
iTunes_CDDB_TrackNumber                  : 7

Аудио
Идентификатор                            : 1
Формат                                   : ALAC
Идентификатор кодека                     : alac
Идентификатор кодека/Информация          : Apple Lossless Audio Codec
Продолжительность                        : 5 м. 28 с.
Duration_LastFrame                       : -36 мс.
Вид битрейта                             : Переменный
Битрейт                                  : 986 Кбит/сек
Каналы                                   : 2 канала
Частота                                  : 44,1 КГц
Битовая глубина                          : 16 бит
Размер потока                            : 38,6 Мбайт (91%)
Язык                                     : English
Дата кодирования                         : UTC 2012-08-31 18:02:55
Дата пометки                             : UTC 2014-05-29 08:39:07

Общее
Полное имя                               : /Users/Denis/Library/Containers/net.mediaarea.mediainfo.mac/Data/Music/iTunes/iTunes Media/Music/Ария/Химера/08 Ворон.m4a
Формат                                   : MPEG-4
Профиль формата                          : Apple audio with iTunes info
Идентификатор кодека                     : M4A
Размер файла                             : 40,9 Мбайт
Продолжительность                        : 5 м. 44 с.
Режим общего битрейта                    : Переменный
Общий поток                              : 995 Кбит/сек
Альбом                                   : Химера
Альбом/Исполнитель                       : Ария
Трек                                     : Ворон
Трек/Положение                           : 8
Трек/Всего                               : 10
Исполнитель                              : Ария
Жанр                                     : Heavy Metal
Дата записи                              : 2001
Дата кодирования                         : UTC 2016-12-02 04:45:03
Дата пометки                             : UTC 2014-05-29 08:39:10
Программа кодирования                    : X Lossless Decoder 20140504, QuickTime 7.7.1
Обложка                                  : Yes
Примечание                               : ExactAudioCopy v0.99pb3
iTunes_CDDB_1                            : 910D740A+258521+10+150+21112+45973+74858+99621+118412+143577+168213+194081+218510
iTunes_CDDB_TrackNumber                  : 8

Аудио
Идентификатор                            : 1
Формат                                   : ALAC
Идентификатор кодека                     : alac
Идентификатор кодека/Информация          : Apple Lossless Audio Codec
Продолжительность                        : 5 м. 44 с.
Duration_LastFrame                       : -49 мс.
Вид битрейта                             : Переменный
Битрейт                                  : 908 Кбит/сек
Каналы                                   : 2 канала
Частота                                  : 44,1 КГц
Битовая глубина                          : 16 бит
Размер потока                            : 37,3 Мбайт (91%)
Язык                                     : English
Дата кодирования                         : UTC 2016-12-02 04:45:03
Дата пометки                             : UTC 2014-05-29 08:39:10

Общее
Полное имя                               : /Users/Denis/Library/Containers/net.mediaarea.mediainfo.mac/Data/Music/iTunes/iTunes Media/Music/Ария/Химера/09 Осколок льда.m4a
Формат                                   : MPEG-4
Профиль формата                          : Apple audio with iTunes info
Идентификатор кодека                     : M4A
Размер файла                             : 40,0 Мбайт
Продолжительность                        : 5 м. 25 с.
Режим общего битрейта                    : Переменный
Общий поток                              : 1029 Кбит/сек
Альбом                                   : Химера
Альбом/Исполнитель                       : Ария
Трек                                     : Осколок льда
Трек/Положение                           : 9
Трек/Всего                               : 10
Исполнитель                              : Ария
Жанр                                     : Heavy Metal
Дата записи                              : 2001
Дата кодирования                         : UTC 2027-07-21 19:30:23
Дата пометки                             : UTC 2014-05-29 08:39:14
Программа кодирования                    : X Lossless Decoder 20140504, QuickTime 7.7.1
Обложка                                  : Yes
Примечание                               : ExactAudioCopy v0.99pb3
iTunes_CDDB_1                            : 910D740A+258521+10+150+21112+45973+74858+99621+118412+143577+168213+194081+218510
iTunes_CDDB_TrackNumber                  : 9

Аудио
Идентификатор                            : 1
Формат                                   : ALAC
Идентификатор кодека                     : alac
Идентификатор кодека/Информация          : Apple Lossless Audio Codec
Продолжительность                        : 5 м. 25 с.
Duration_LastFrame                       : -10 мс.
Вид битрейта                             : Переменный
Битрейт                                  : 937 Кбит/сек
Каналы                                   : 2 канала
Частота                                  : 44,1 КГц
Битовая глубина                          : 16 бит
Размер потока                            : 36,4 Мбайт (91%)
Язык                                     : English
Дата кодирования                         : UTC 2027-07-21 19:30:23
Дата пометки                             : UTC 2014-05-29 08:39:14

Общее
Полное имя                               : /Users/Denis/Library/Containers/net.mediaarea.mediainfo.mac/Data/Music/iTunes/iTunes Media/Music/Ария/Химера/10 Тебе дадут знак.m4a
Формат                                   : MPEG-4
Профиль формата                          : Apple audio with iTunes info
Идентификатор кодека                     : M4A
Размер файла                             : 62,5 Мбайт
Продолжительность                        : 8 м. 53 с.
Режим общего битрейта                    : Переменный
Общий поток                              : 982 Кбит/сек
Альбом                                   : Химера
Альбом/Исполнитель                       : Ария
Трек                                     : Тебе дадут знак
Трек/Положение                           : 10
Трек/Всего                               : 10
Исполнитель                              : Ария
Жанр                                     : Heavy Metal
Дата записи                              : 2001
Дата кодирования                         : UTC 2036-01-22 16:54:39
Дата пометки                             : UTC 2014-05-29 08:39:17
Программа кодирования                    : X Lossless Decoder 20140504, QuickTime 7.7.1
Обложка                                  : Yes
Примечание                               : ExactAudioCopy v0.99pb3
iTunes_CDDB_1                            : 910D740A+258521+10+150+21112+45973+74858+99621+118412+143577+168213+194081+218510
iTunes_CDDB_TrackNumber                  : 10

Аудио
Идентификатор                            : 1
Формат                                   : ALAC
Идентификатор кодека                     : alac
Идентификатор кодека/Информация          : Apple Lossless Audio Codec
Продолжительность                        : 8 м. 53 с.
Duration_LastFrame                       : -22 мс.
Вид битрейта                             : Переменный
Битрейт                                  : 925 Кбит/сек
Каналы                                   : 2 канала
Частота                                  : 44,1 КГц
Битовая глубина                          : 16 бит
Размер потока                            : 58,8 Мбайт (94%)
Язык                                     : English
Дата кодирования                         : UTC 2036-01-22 16:54:39
Дата пометки                             : UTC 2014-05-29 08:39:17
Код: выделить все

-----------------------

DON'T MODIFY THIS FILE

-----------------------

PERFORMER: auCDtect Task Manager, ver. 1.6.0 RC1 build 1.6.0.1
Copyright (c) 2008-2010 y-soft. All rights reserved
http://y-soft.org

ANALYZER: auCDtect: CD records authenticity detector, version 0.8.2
Copyright (c) 2004 Oleg Berngardt. All rights reserved.
Copyright (c) 2004 Alexander Djourik. All rights reserved.

FILE: 10 Тебе дадут знак.m4a
  Size: 65484728 Hash: C32C7132270CC66DFB0B11FF6CA57C38 Accuracy: -m8
  Conclusion: CDDA 100%
  Signature: 0CACD11070FB32661E7596411C06A405FAA61535
FILE: 09 Осколок льда.m4a
  Size: 41902046 Hash: D4B9A0CC0BFF56F7B0071A936DF5C653 Accuracy: -m8
  Conclusion: CDDA 100%
  Signature: D3ED993B87AD99CB09DFAD133E2D8F7B50201095
FILE: 08 Ворон.m4a
  Size: 42909177 Hash: F9D00CAE2E02B4DA2FCD16F060FBA503 Accuracy: -m8
  Conclusion: CDDA 100%
  Signature: 701104189DEBC514CD742B82254C2DDBA0F5F304
FILE: 07 Путь в никуда.m4a
  Size: 44249038 Hash: 513C145392A01CFFD2BBB40D6D88B272 Accuracy: -m8
  Conclusion: CDDA 100%
  Signature: AF3175801481E40F2EA4960BB5C6DA3F012B140F
FILE: 06 Штиль.m4a
  Size: 43254183 Hash: 798BECC9EB3A4000CD8EB2443F431BA3 Accuracy: -m0
  Conclusion: CDDA 100%
  Signature: 7D764BE92DE29341C36BBC31B3C9A8D706391710
FILE: 05 Горящая стрела.m4a
  Size: 36209780 Hash: 52AC77DC0C2A9BBBBAD281988F188C09 Accuracy: -m0
  Conclusion: CDDA 100%
  Signature: 94B04D910E912FA4C4E8165F127676C18D1A3F97
FILE: 04 Вампир.m4a
  Size: 42203753 Hash: 17860381E0A3BBF20054E2C26DD4A0DA Accuracy: -m8
  Conclusion: CDDA 100%
  Signature: 2F2A4F483117A7B7EE7DC4DE23611B862ABA60DD
FILE: 03 Я не сошёл с ума.m4a
  Size: 51646019 Hash: 5A2A4A24E2DED74FF256A8EFAACE7604 Accuracy: -m0
  Conclusion: CDDA 100%
  Signature: 7A16367014B160B2C8C1CB52B6FD1811DF800D53
FILE: 02 Небо тебя найдёт.m4a
  Size: 44916085 Hash: 56BCE7CF77C1DFAA44D55D7AFDFE0936 Accuracy: -m8
  Conclusion: CDDA 100%
  Signature: C68D4D34781CEA92BB5C58EF438A19E92FC2C600
FILE: 01 Химера.m4a
  Size: 39191889 Hash: C644358F15A476A2D3179C50D0B6D933 Accuracy: -m8
  Conclusion: CDDA 100%
  Signature: CFEFC1FFDD5F4BCAF44A9030553A9A0FAA095E76

Все номерные альбомы группы АРИЯ в ALAC/Lossless/Tracks:
1. Мания величия (1985 год)
2. C кем ты (1986 год)
3. Герой асфальта (1987 год)
4. Игра с огнем (1989 год)
5. Кровь за кровь (1991 год)
6. Ночь короче дня (1995 год)
7. Генератор зла (1998 год)
8. Химера (2001 год)
9. Крещение огнем (2003 год)
10. Армагеддон (2006 год)
11. Феникс (2011 год)


Все альбомы (номерные, концертные, синглы трибьюты и сборники) группы АРИЯ в ALAC

Время раздачи: с 20:00 до 03:00 постоянно / часто 24/7
[NNM-Club.me]_Ariya (2001) Himera.torrent
 Торрент: Платиновая раздача  Зарегистрирован
 
Скачать


Примагнититься
 Зарегистрирован:   30 Май 2014 12:01:03
 Размер:   431 MB  (
 Рейтинг:   4.7 (Голосов: 65)
 Поблагодарили:   149
 Проверка:   Оформление проверено модератором 30 Май 2014 14:52:36
Как cкачать  ·  Как раздать  ·  Правильно оформить  ·  Поднять ратио!  
Koshmarny
Стаж: 14 лет 5 мес.
Сообщений: 36
Ratio: 80.333
100%
ussr.gif
Ых, молодасть...
Ramm-45
Стаж: 11 лет 2 мес.
Сообщений: 144
Ratio: 0.861
100%
ussr.gif
Да,согласен! :плач: :стеб: :респект:
shamsito
Стаж: 10 лет 10 мес.
Сообщений: 1
Ratio: 6.735
7.48%
Эх, великая группа и в Африке великая)
Показать сообщения:   
Начать новую тему   Ответить на тему    Торрент-трекер NNM-Club -> Аудио и Видео -> Музыка Lossless (ALAC) Часовой пояс: GMT + 3
Страница 1 из 1