Классический форум-трекер
canvas not supported
Нас вместе: 4 172 389

Ария - Феникс (2011) [ALAC|Tracks]<Heavy Metal>


 
 
RSS
Начать новую тему   Ответить на тему    Торрент-трекер NNM-Club -> Аудио и Видео -> Музыка Lossless (ALAC)
Автор Сообщение
Cecidit ®
Стаж: 7 лет 10 мес.
Сообщений: 129
Ratio: 39.772
Поблагодарили: 8816
100%
Откуда: Москва, МО Щелково
russia.gif
Ария - Феникс (2011)
Год: 2011
Жанр: Heavy Metal
Продолжительность: 01:00:20

Кодек: ALAC
Битрейт: Lossless
Тип раздачи: Tracks
Обложки: Вшиты
Кодирование: XLD + QuickTime + iTunes

«Феникс» — одиннадцатый студийный альбом российской хеви-метал-группы «Ария», выпущенный в 2011 году. Это первый альбом с новым вокалистом Михаилом Житняковым, записанный после ухода из группы Артура Беркута, и самый продолжительный по длительности.

Состав:
Михаил Житняков — вокал
Владимир Холстинин — гитара
Виталий Дубинин — бас-гитара, гитара, вокал, бэк-вокал
Максим Удалов — ударные
Сергей Попов — гитара

Треклист:
01. Чёрный Квадрат
02. Равновесие Сил
03. История Одного Убийцы
04. Чёрная Легенда
05. Бои Без Правил
06. Феникс
07. Симфония Огня
08. Аттила
09. Дальний Свет
10. Реквием
Код: выделить все

Общее
Полное имя                               : /Users/Denis/Library/Containers/net.mediaarea.mediainfo.mac/Data/Music/iTunes/iTunes Media/Music/Ария/Феникс/01 Черный квадрат.m4a
Формат                                   : MPEG-4
Профиль формата                          : Apple audio with iTunes info
Идентификатор кодека                     : M4A
Размер файла                             : 40,3 Мбайт
Продолжительность                        : 5 м. 20 с.
Режим общего битрейта                    : Переменный
Общий поток                              : 1056 Кбит/сек
Альбом                                   : Феникс
Альбом/Исполнитель                       : Ария
Трек                                     : Черный квадрат
Трек/Положение                           : 1
Трек/Всего                               : 10
Исполнитель                              : Ария
Жанр                                     : Heavy Metal
Дата записи                              : 2011
Дата кодирования                         : UTC 2028-02-06 07:16:31
Дата пометки                             : UTC 2014-05-29 09:07:42
Программа кодирования                    : X Lossless Decoder 20140504, QuickTime 7.7.1
Обложка                                  : Yes
Примечание                               : ExactAudioCopy v1.0b3
iTunes_CDDB_1                            : 8F0E240A+271685+10+150+24167+43193+71918+108179+139263+168946+193726+229485+251777
iTunes_CDDB_TrackNumber                  : 1

Аудио
Идентификатор                            : 1
Формат                                   : ALAC
Идентификатор кодека                     : alac
Идентификатор кодека/Информация          : Apple Lossless Audio Codec
Продолжительность                        : 5 м. 20 с.
Duration_LastFrame                       : -23 мс.
Вид битрейта                             : Переменный
Битрейт                                  : 1041 Кбит/сек
Каналы                                   : 2 канала
Частота                                  : 44,1 КГц
Битовая глубина                          : 16 бит
Размер потока                            : 39,7 Мбайт (99%)
Язык                                     : English
Дата кодирования                         : UTC 2028-02-06 07:16:31
Дата пометки                             : UTC 2014-05-29 09:07:42

Общее
Полное имя                               : /Users/Denis/Library/Containers/net.mediaarea.mediainfo.mac/Data/Music/iTunes/iTunes Media/Music/Ария/Феникс/02 Равновесие сил.m4a
Формат                                   : MPEG-4
Профиль формата                          : Apple audio with iTunes info
Идентификатор кодека                     : M4A
Размер файла                             : 32,0 Мбайт
Продолжительность                        : 4 м. 13 с.
Режим общего битрейта                    : Переменный
Общий поток                              : 1059 Кбит/сек
Альбом                                   : Феникс
Альбом/Исполнитель                       : Ария
Трек                                     : Равновесие сил
Трек/Положение                           : 2
Трек/Всего                               : 10
Исполнитель                              : Ария
Жанр                                     : Heavy Metal
Дата записи                              : 2011
Дата кодирования                         : UTC 2025-06-10 09:35:11
Дата пометки                             : UTC 2014-05-29 09:07:45
Программа кодирования                    : X Lossless Decoder 20140504, QuickTime 7.7.1
Обложка                                  : Yes
Примечание                               : ExactAudioCopy v1.0b3
iTunes_CDDB_1                            : 8F0E240A+271685+10+150+24167+43193+71918+108179+139263+168946+193726+229485+251777
iTunes_CDDB_TrackNumber                  : 2

Аудио
Идентификатор                            : 1
Формат                                   : ALAC
Идентификатор кодека                     : alac
Идентификатор кодека/Информация          : Apple Lossless Audio Codec
Продолжительность                        : 4 м. 13 с.
Duration_LastFrame                       : -68 мс.
Вид битрейта                             : Переменный
Битрейт                                  : 1040 Кбит/сек
Каналы                                   : 2 канала
Частота                                  : 44,1 КГц
Битовая глубина                          : 16 бит
Размер потока                            : 31,5 Мбайт (98%)
Язык                                     : English
Дата кодирования                         : UTC 2025-06-10 09:35:11
Дата пометки                             : UTC 2014-05-29 09:07:45

Общее
Полное имя                               : /Users/Denis/Library/Containers/net.mediaarea.mediainfo.mac/Data/Music/iTunes/iTunes Media/Music/Ария/Феникс/03 История одного убийцы.m4a
Формат                                   : MPEG-4
Профиль формата                          : Apple audio with iTunes info
Идентификатор кодека                     : M4A
Размер файла                             : 44,7 Мбайт
Продолжительность                        : 6 м. 23 с.
Режим общего битрейта                    : Переменный
Общий поток                              : 980 Кбит/сек
Альбом                                   : Феникс
Альбом/Исполнитель                       : Ария
Трек                                     : История одного убийцы
Трек/Положение                           : 3
Трек/Всего                               : 10
Исполнитель                              : Ария
Жанр                                     : Heavy Metal
Дата записи                              : 2011
Дата кодирования                         : UTC 2038-03-14 17:41:35
Дата пометки                             : UTC 2014-05-29 09:07:47
Программа кодирования                    : X Lossless Decoder 20140504, QuickTime 7.7.1
Обложка                                  : Yes
Примечание                               : ExactAudioCopy v1.0b3
iTunes_CDDB_1                            : 8F0E240A+271685+10+150+24167+43193+71918+108179+139263+168946+193726+229485+251777
iTunes_CDDB_TrackNumber                  : 3

Аудио
Идентификатор                            : 1
Формат                                   : ALAC
Идентификатор кодека                     : alac
Идентификатор кодека/Информация          : Apple Lossless Audio Codec
Продолжительность                        : 6 м. 23 с.
Duration_LastFrame                       : -36 мс.
Вид битрейта                             : Переменный
Битрейт                                  : 967 Кбит/сек
Каналы                                   : 2 канала
Частота                                  : 44,1 КГц
Битовая глубина                          : 16 бит
Размер потока                            : 44,1 Мбайт (99%)
Язык                                     : English
Дата кодирования                         : UTC 2038-03-14 17:41:35
Дата пометки                             : UTC 2014-05-29 09:07:47

Общее
Полное имя                               : /Users/Denis/Library/Containers/net.mediaarea.mediainfo.mac/Data/Music/iTunes/iTunes Media/Music/Ария/Феникс/04 Чёрная легенда.m4a
Формат                                   : MPEG-4
Профиль формата                          : Apple audio with iTunes info
Идентификатор кодека                     : M4A
Размер файла                             : 59,7 Мбайт
Продолжительность                        : 8 м. 3 с.
Режим общего битрейта                    : Переменный
Общий поток                              : 1036 Кбит/сек
Альбом                                   : Феникс
Альбом/Исполнитель                       : Ария
Трек                                     : Чёрная легенда
Трек/Положение                           : 4
Трек/Всего                               : 10
Исполнитель                              : Ария
Жанр                                     : Heavy Metal
Дата записи                              : 2011
Дата пометки                             : UTC 2014-05-29 09:07:50
Программа кодирования                    : X Lossless Decoder 20140504, QuickTime 7.7.1
Обложка                                  : Yes
Примечание                               : ExactAudioCopy v1.0b3
iTunes_CDDB_1                            : 8F0E240A+271685+10+150+24167+43193+71918+108179+139263+168946+193726+229485+251777
iTunes_CDDB_TrackNumber                  : 4

Аудио
Идентификатор                            : 1
Формат                                   : ALAC
Идентификатор кодека                     : alac
Идентификатор кодека/Информация          : Apple Lossless Audio Codec
Продолжительность                        : 8 м. 3 с.
Duration_LastFrame                       : -52 мс.
Вид битрейта                             : Переменный
Битрейт                                  : 1026 Кбит/сек
Каналы                                   : 2 канала
Частота                                  : 44,1 КГц
Битовая глубина                          : 16 бит
Размер потока                            : 59,2 Мбайт (99%)
Язык                                     : English
Дата пометки                             : UTC 2014-05-29 09:07:50

Общее
Полное имя                               : /Users/Denis/Library/Containers/net.mediaarea.mediainfo.mac/Data/Music/iTunes/iTunes Media/Music/Ария/Феникс/05 Бои без правил.m4a
Формат                                   : MPEG-4
Профиль формата                          : Apple audio with iTunes info
Идентификатор кодека                     : M4A
Размер файла                             : 52,4 Мбайт
Продолжительность                        : 6 м. 54 с.
Режим общего битрейта                    : Переменный
Общий поток                              : 1061 Кбит/сек
Альбом                                   : Феникс
Альбом/Исполнитель                       : Ария
Трек                                     : Бои без правил
Трек/Положение                           : 5
Трек/Всего                               : 10
Исполнитель                              : Ария
Жанр                                     : Heavy Metal
Дата записи                              : 2011
Дата пометки                             : UTC 2014-05-29 09:07:55
Программа кодирования                    : X Lossless Decoder 20140504, QuickTime 7.7.1
Обложка                                  : Yes
Примечание                               : ExactAudioCopy v1.0b3
iTunes_CDDB_1                            : 8F0E240A+271685+10+150+24167+43193+71918+108179+139263+168946+193726+229485+251777
iTunes_CDDB_TrackNumber                  : 5

Аудио
Идентификатор                            : 1
Формат                                   : ALAC
Идентификатор кодека                     : alac
Идентификатор кодека/Информация          : Apple Lossless Audio Codec
Продолжительность                        : 6 м. 54 с.
Duration_LastFrame                       : -69 мс.
Вид битрейта                             : Переменный
Битрейт                                  : 1049 Кбит/сек
Каналы                                   : 2 канала
Частота                                  : 44,1 КГц
Битовая глубина                          : 16 бит
Размер потока                            : 51,9 Мбайт (99%)
Язык                                     : English
Дата пометки                             : UTC 2014-05-29 09:07:55

Общее
Полное имя                               : /Users/Denis/Library/Containers/net.mediaarea.mediainfo.mac/Data/Music/iTunes/iTunes Media/Music/Ария/Феникс/06 Феникс.m4a
Формат                                   : MPEG-4
Профиль формата                          : Apple audio with iTunes info
Идентификатор кодека                     : M4A
Размер файла                             : 47,4 Мбайт
Продолжительность                        : 6 м. 35 с.
Режим общего битрейта                    : Переменный
Общий поток                              : 1004 Кбит/сек
Альбом                                   : Феникс
Альбом/Исполнитель                       : Ария
Трек                                     : Феникс
Трек/Положение                           : 6
Трек/Всего                               : 10
Исполнитель                              : Ария
Жанр                                     : Heavy Metal
Дата записи                              : 2011
Дата пометки                             : UTC 2014-05-29 09:07:59
Программа кодирования                    : X Lossless Decoder 20140504, QuickTime 7.7.1
Обложка                                  : Yes
Примечание                               : ExactAudioCopy v1.0b3
iTunes_CDDB_1                            : 8F0E240A+271685+10+150+24167+43193+71918+108179+139263+168946+193726+229485+251777
iTunes_CDDB_TrackNumber                  : 6

Аудио
Идентификатор                            : 1
Формат                                   : ALAC
Идентификатор кодека                     : alac
Идентификатор кодека/Информация          : Apple Lossless Audio Codec
Продолжительность                        : 6 м. 35 с.
Duration_LastFrame                       : -80 мс.
Вид битрейта                             : Переменный
Битрейт                                  : 992 Кбит/сек
Каналы                                   : 2 канала
Частота                                  : 44,1 КГц
Битовая глубина                          : 16 бит
Размер потока                            : 46,8 Мбайт (99%)
Язык                                     : English
Дата пометки                             : UTC 2014-05-29 09:07:59

Общее
Полное имя                               : /Users/Denis/Library/Containers/net.mediaarea.mediainfo.mac/Data/Music/iTunes/iTunes Media/Music/Ария/Феникс/07 Симфония огня.m4a
Формат                                   : MPEG-4
Профиль формата                          : Apple audio with iTunes info
Идентификатор кодека                     : M4A
Размер файла                             : 39,5 Мбайт
Продолжительность                        : 5 м. 30 с.
Режим общего битрейта                    : Переменный
Общий поток                              : 1003 Кбит/сек
Альбом                                   : Феникс
Альбом/Исполнитель                       : Ария
Трек                                     : Симфония огня
Трек/Положение                           : 7
Трек/Всего                               : 10
Исполнитель                              : Ария
Жанр                                     : Heavy Metal
Дата записи                              : 2011
Дата пометки                             : UTC 2014-05-29 09:08:03
Программа кодирования                    : X Lossless Decoder 20140504, QuickTime 7.7.1
Обложка                                  : Yes
Примечание                               : ExactAudioCopy v1.0b3
iTunes_CDDB_1                            : 8F0E240A+271685+10+150+24167+43193+71918+108179+139263+168946+193726+229485+251777
iTunes_CDDB_TrackNumber                  : 7

Аудио
Идентификатор                            : 1
Формат                                   : ALAC
Идентификатор кодека                     : alac
Идентификатор кодека/Информация          : Apple Lossless Audio Codec
Продолжительность                        : 5 м. 30 с.
Duration_LastFrame                       : -66 мс.
Вид битрейта                             : Переменный
Битрейт                                  : 988 Кбит/сек
Каналы                                   : 2 канала
Частота                                  : 44,1 КГц
Битовая глубина                          : 16 бит
Размер потока                            : 38,9 Мбайт (99%)
Язык                                     : English
Дата пометки                             : UTC 2014-05-29 09:08:03

Общее
Полное имя                               : /Users/Denis/Library/Containers/net.mediaarea.mediainfo.mac/Data/Music/iTunes/iTunes Media/Music/Ария/Феникс/08 Аттила.m4a
Формат                                   : MPEG-4
Профиль формата                          : Apple audio with iTunes info
Идентификатор кодека                     : M4A
Размер файла                             : 53,3 Мбайт
Продолжительность                        : 7 м. 56 с.
Режим общего битрейта                    : Переменный
Общий поток                              : 938 Кбит/сек
Альбом                                   : Феникс
Альбом/Исполнитель                       : Ария
Трек                                     : Аттила
Трек/Положение                           : 8
Трек/Всего                               : 10
Исполнитель                              : Ария
Жанр                                     : Heavy Metal
Дата записи                              : 2011
Дата пометки                             : UTC 2014-05-29 09:08:06
Программа кодирования                    : X Lossless Decoder 20140504, QuickTime 7.7.1
Обложка                                  : Yes
Примечание                               : ExactAudioCopy v1.0b3
iTunes_CDDB_1                            : 8F0E240A+271685+10+150+24167+43193+71918+108179+139263+168946+193726+229485+251777
iTunes_CDDB_TrackNumber                  : 8

Аудио
Идентификатор                            : 1
Формат                                   : ALAC
Идентификатор кодека                     : alac
Идентификатор кодека/Информация          : Apple Lossless Audio Codec
Продолжительность                        : 7 м. 56 с.
Duration_LastFrame                       : -58 мс.
Вид битрейта                             : Переменный
Битрейт                                  : 928 Кбит/сек
Каналы                                   : 2 канала
Частота                                  : 44,1 КГц
Битовая глубина                          : 16 бит
Размер потока                            : 52,7 Мбайт (99%)
Язык                                     : English
Дата пометки                             : UTC 2014-05-29 09:08:06

Общее
Полное имя                               : /Users/Denis/Library/Containers/net.mediaarea.mediainfo.mac/Data/Music/iTunes/iTunes Media/Music/Ария/Феникс/09 Дальний свет.m4a
Формат                                   : MPEG-4
Профиль формата                          : Apple audio with iTunes info
Идентификатор кодека                     : M4A
Размер файла                             : 35,5 Мбайт
Продолжительность                        : 4 м. 57 с.
Режим общего битрейта                    : Переменный
Общий поток                              : 1002 Кбит/сек
Альбом                                   : Феникс
Альбом/Исполнитель                       : Ария
Трек                                     : Дальний свет
Трек/Положение                           : 9
Трек/Всего                               : 10
Исполнитель                              : Ария
Жанр                                     : Heavy Metal
Дата записи                              : 2011
Дата пометки                             : UTC 2014-05-29 09:08:10
Программа кодирования                    : X Lossless Decoder 20140504, QuickTime 7.7.1
Обложка                                  : Yes
Примечание                               : ExactAudioCopy v1.0b3
iTunes_CDDB_1                            : 8F0E240A+271685+10+150+24167+43193+71918+108179+139263+168946+193726+229485+251777
iTunes_CDDB_TrackNumber                  : 9

Аудио
Идентификатор                            : 1
Формат                                   : ALAC
Идентификатор кодека                     : alac
Идентификатор кодека/Информация          : Apple Lossless Audio Codec
Продолжительность                        : 4 м. 57 с.
Duration_LastFrame                       : -82 мс.
Вид битрейта                             : Переменный
Битрейт                                  : 986 Кбит/сек
Каналы                                   : 2 канала
Частота                                  : 44,1 КГц
Битовая глубина                          : 16 бит
Размер потока                            : 35,0 Мбайт (98%)
Язык                                     : English
Дата пометки                             : UTC 2014-05-29 09:08:10

Общее
Полное имя                               : /Users/Denis/Library/Containers/net.mediaarea.mediainfo.mac/Data/Music/iTunes/iTunes Media/Music/Ария/Феникс/10 Реквием.m4a
Формат                                   : MPEG-4
Профиль формата                          : Apple audio with iTunes info
Идентификатор кодека                     : M4A
Размер файла                             : 26,7 Мбайт
Продолжительность                        : 4 м. 25 с.
Режим общего битрейта                    : Переменный
Общий поток                              : 844 Кбит/сек
Альбом                                   : Феникс
Альбом/Исполнитель                       : Ария
Трек                                     : Реквием
Трек/Положение                           : 10
Трек/Всего                               : 10
Исполнитель                              : Ария
Жанр                                     : Heavy Metal
Дата записи                              : 2011
Дата пометки                             : UTC 2014-05-29 09:08:13
Программа кодирования                    : X Lossless Decoder 20140504, QuickTime 7.7.1
Обложка                                  : Yes
Примечание                               : ExactAudioCopy v1.0b3
iTunes_CDDB_1                            : 8F0E240A+271685+10+150+24167+43193+71918+108179+139263+168946+193726+229485+251777
iTunes_CDDB_TrackNumber                  : 10

Аудио
Идентификатор                            : 1
Формат                                   : ALAC
Идентификатор кодека                     : alac
Идентификатор кодека/Информация          : Apple Lossless Audio Codec
Продолжительность                        : 4 м. 25 с.
Duration_LastFrame                       : -11 мс.
Вид битрейта                             : Переменный
Битрейт                                  : 827 Кбит/сек
Каналы                                   : 2 канала
Частота                                  : 44,1 КГц
Битовая глубина                          : 16 бит
Размер потока                            : 26,2 Мбайт (98%)
Язык                                     : English
Дата пометки                             : UTC 2014-05-29 09:08:13
Код: выделить все

-----------------------

DON'T MODIFY THIS FILE

-----------------------

PERFORMER: auCDtect Task Manager, ver. 1.6.0 RC1 build 1.6.0.1
Copyright (c) 2008-2010 y-soft. All rights reserved
http://y-soft.org

ANALYZER: auCDtect: CD records authenticity detector, version 0.8.2
Copyright (c) 2004 Oleg Berngardt. All rights reserved.
Copyright (c) 2004 Alexander Djourik. All rights reserved.

FILE: 10 Реквием.m4a
  Size: 28007521 Hash: 24AE69CFCCF80C1628347725553FACF1 Accuracy: -m8
  Conclusion: CDDA 100%
  Signature: 5917AB0A17F9802C5C491A04B39DC23863E5618F
FILE: 09 Дальний свет.m4a
  Size: 37242240 Hash: D5B8F2F042093D55054EB96FAFF32B47 Accuracy: -m8
  Conclusion: CDDA 100%
  Signature: 39796BB5B0D826C12AEF660C6C1187FA693CF0BA
FILE: 08 Аттила.m4a
  Size: 55900780 Hash: 2B23FBFFD47C5E48D9DBD9522FED9C56 Accuracy: -m8
  Conclusion: CDDA 100%
  Signature: F278A3706A176C126C36DE9C019CFD6679847368
FILE: 07 Симфония огня.m4a
  Size: 41419215 Hash: 7E46B8A145C9053CD38E36FDFEC980C8 Accuracy: -m8
  Conclusion: CDDA 100%
  Signature: 00CD47B9D0C82DFEBBB4089BDED3792F3E4DE56D
FILE: 06 Феникс.m4a
  Size: 49679479 Hash: 26456E2D7B22055F3A4A8B5F002E57A2 Accuracy: -m8
  Conclusion: CDDA 100%
  Signature: 7BE1130B5906FDA7782C2E5E0CC5243D195B2072
FILE: 05 Бои без правил.m4a
  Size: 54979254 Hash: 816F8C7BAE00627B8E42AABB80B70072 Accuracy: -m8
  Conclusion: CDDA 100%
  Signature: E8E586FB1E1F5FB420C4AE9DA513CC4F6DFD022B
FILE: 04 Чёрная легенда.m4a
  Size: 62637488 Hash: 601F1BA9F3DA6C11748D322236FE0F2C Accuracy: -m8
  Conclusion: CDDA 100%
  Signature: 29BCCC089A6800DB4E3345EE7F4B94C96BF59174
FILE: 03 История одного убийцы.m4a
  Size: 46895467 Hash: 41893E2C476E69900A571859785028E4 Accuracy: -m8
  Conclusion: CDDA 100%
  Signature: 60530267F24CAB2D71D35D5E066C76E100729FAD
FILE: 02 Равновесие сил.m4a
  Size: 33570172 Hash: 3175513D37A80DE284A1CA4AAB43D7AC Accuracy: -m8
  Conclusion: CDDA 100%
  Signature: 23E9EE6E99DD1FC59DC0BEC41394B6F72F0517E3
FILE: 01 Черный квадрат.m4a
  Size: 42258125 Hash: 4283297D090CDD24E2566A3EE081EE27 Accuracy: -m8
  Conclusion: CDDA 100%
  Signature: 0ADD1EE0A23BD6F4594270943F986B851283B49F

Все номерные альбомы группы АРИЯ в ALAC/Lossless/Tracks:
1. Мания величия (1985 год)
2. C кем ты (1986 год)
3. Герой асфальта (1987 год)
4. Игра с огнем (1989 год)
5. Кровь за кровь (1991 год)
6. Ночь короче дня (1995 год)
7. Генератор зла (1998 год)
8. Химера (2001 год)
9. Крещение огнем (2003 год)
10. Армагеддон (2006 год)
11. Феникс (2011 год)


Все альбомы (номерные, концертные, синглы трибьюты и сборники) группы АРИЯ в ALAC

Время раздачи: с 20:00 до 03:00 постоянно / часто 24/7
[NNM-Club.me]_Ariya (2011) Feniks.torrent
 Торрент: Платиновая раздача  Зарегистрирован
 
Скачать


Примагнититься
 Зарегистрирован:   30 Май 2014 12:02:51
 Размер:   432 MB  (
 Рейтинг:   4.5 (Голосов: 53)
 Поблагодарили:   125
 Проверка:   Оформление проверено модератором 30 Май 2014 14:53:13
Как cкачать  ·  Как раздать  ·  Правильно оформить  ·  Поднять ратио!  
XXLeninXX
Стаж: 9 лет 6 мес.
Сообщений: 157
Ratio: 59.614
100%
Откуда: Подольск
russia.gif
Вокалист ассоциируется с певцом патриотических песен СССР,к тому же постоянно лажает.Да,до Кипелова ему как до Луны!
Cecidit ®
Стаж: 7 лет 10 мес.
Сообщений: 129
Ratio: 39.772
Поблагодарили: 8816
100%
Откуда: Москва, МО Щелково
russia.gif
XXLeninXX писал(а): Перейти к сообщению
Вокалист ассоциируется с певцом патриотических песен СССР,к тому же постоянно лажает.Да,до Кипелова ему как до Луны!
в «Гран-Куражъ» мне в принципе его вокал нравился относительно, к "Беркуту" я тоже достаточно хорошо относился, но реально после 2002 года как бы я уже ни Кипелова, ни Арию, ни Маврина после "запрещенной реальности" - вообще не воспринимаю. Вот не знаю почему, мне если честно приятнее послушать если из российских, то Арктиду, Натиск и им подобные. Вот не идет как-то экс-Ария вся=))
XXLeninXX
Стаж: 9 лет 6 мес.
Сообщений: 157
Ratio: 59.614
100%
Откуда: Подольск
russia.gif
Я с удовольствием слушаю и Маврина и Беркута,а Арию воспринимаю только времён Кипелова,очень похоже на Iron Maiden
Cecidit ®
Стаж: 7 лет 10 мес.
Сообщений: 129
Ratio: 39.772
Поблагодарили: 8816
100%
Откуда: Москва, МО Щелково
russia.gif
XXLeninXX писал(а): Перейти к сообщению
Я с удовольствием слушаю и Маврина и Беркута,а Арию воспринимаю только времён Кипелова,очень похоже на Iron Maiden


Ну как бы да, есть такое. Беркутовская мне нравилась, но я все же уже это воспринимал другой абсолютно группой. Насчет Маврина ну вот "Моя свобода" и "Противостояние" - я себя уже как-то скорее заставил послушать, скорее для интереса, но вот реально уже не мое как-то совсем. Возвращаясь к "Фениксу", ну не знаю, мне вообще вокал Житнякова в принципе нравился в "Кураже", кстати тоже в ALAC их выложил ТУТ, просто у Кипелова классика, у Беркута был драйв, у Житнякова был драйв в "Гранд-КуражЪ", в проекте "Margenta", а в Арии я вообще его не узнал=)) Он на сцене вообще как лишний из другой эпохи=)
Milord360
Стаж: 9 лет 11 мес.
Сообщений: 1
Ratio: 23.541
0.82%
Что за кошмар я слышу?!)) это АРИЯ?! опустите мне веки))) мда.... даже с Беркутом и музыка и слова были стоящие( не ожидал.примитивный смысл,музыка такая же.( слушайте Армагеддон и не далее) АРИЯ ... R.I.P.
the_madghost
Стаж: 13 лет 11 мес.
Сообщений: 1
Ratio: 22.817
100%
по Спектрограмме больше похоже на mp3 320 пережатых в алаки
Показать сообщения:   
Начать новую тему   Ответить на тему    Торрент-трекер NNM-Club -> Аудио и Видео -> Музыка Lossless (ALAC) Часовой пояс: GMT + 3
Страница 1 из 1