Классический форум-трекер
canvas not supported
Нас вместе: 4 172 383

Ария - Игра с огнем (1989) [ALAC|Tracks]<Heavy Metal>


 
 
RSS
Начать новую тему   Ответить на тему    Торрент-трекер NNM-Club -> Аудио и Видео -> Музыка Lossless (ALAC)
Автор Сообщение
Cecidit ®
Стаж: 7 лет 10 мес.
Сообщений: 129
Ratio: 39.772
Поблагодарили: 8816
100%
Откуда: Москва, МО Щелково
russia.gif
Ария - Игра с огнем (1989)
Год: 1989
Жанр: Heavy Metal
Продолжительность: 00:39:42

Кодек: ALAC
Битрейт: Lossless
Тип раздачи: Tracks
Обложки: Вшиты
Кодирование: XLD + QuickTime + iTunes

«Игра с огнём» — четвёртый студийный альбом группы Ария.
Первый альбом, выпущенный «арийцами» после расставания с директором группы Виктором Векштейном. На момент записи права на название «Ария» все ещё принадлежали Векштейну, но претензий к его использованию он не предъявил.

Состав:
Валерий Кипелов — вокал
Владимир Холстинин — гитара
Сергей Маврин — гитара, ак.гитара
Виталий Дубинин — бас, бэк-вокал
Александр Манякин — барабаны

Треклист:
01. Что Вы Сделали С Вашей Мечтой?
02. Раскачаем Этот Мир
03. Раб Страха
04. Искушение
05. Игра С Огнём
06. Бой Продолжается
07. Дай Жару!
Код: выделить все

Общее
Полное имя                               : /Users/Denis/Library/Containers/net.mediaarea.mediainfo.mac/Data/Music/iTunes/iTunes Media/Music/Ария/Игра с огнем/01 Что вы сделали с вашей мечтой.m4a
Формат                                   : MPEG-4
Профиль формата                          : Apple audio with iTunes info
Идентификатор кодека                     : M4A
Размер файла                             : 35,8 Мбайт
Продолжительность                        : 5 м. 21 с.
Режим общего битрейта                    : Переменный
Общий поток                              : 933 Кбит/сек
Альбом                                   : Игра с огнем
Альбом/Исполнитель                       : Ария
Трек                                     : Что вы сделали с вашей мечтой
Трек/Положение                           : 1
Трек/Всего                               : 7
Исполнитель                              : Ария
Жанр                                     : Heavy Metal
Дата записи                              : 1989
Дата пометки                             : UTC 2014-05-29 00:04:04
Программа кодирования                    : X Lossless Decoder 20140504, QuickTime 7.7.1
Обложка                                  : Yes
Примечание                               : ExactAudioCopy v0.99pb3
iTunes_CDDB_1                            : 54094F07+178875+7+150+24292+51402+72437+90470+131317+158930
iTunes_CDDB_TrackNumber                  : 1

Аудио
Идентификатор                            : 1
Формат                                   : ALAC
Идентификатор кодека                     : alac
Идентификатор кодека/Информация          : Apple Lossless Audio Codec
Продолжительность                        : 5 м. 21 с.
Duration_LastFrame                       : -28 мс.
Вид битрейта                             : Переменный
Битрейт                                  : 918 Кбит/сек
Каналы                                   : 2 канала
Частота                                  : 44,1 КГц
Битовая глубина                          : 16 бит
Размер потока                            : 35,2 Мбайт (98%)
Язык                                     : English
Дата пометки                             : UTC 2014-05-29 00:04:04

Общее
Полное имя                               : /Users/Denis/Library/Containers/net.mediaarea.mediainfo.mac/Data/Music/iTunes/iTunes Media/Music/Ария/Игра с огнем/02 Раскачаем этот мир.m4a
Формат                                   : MPEG-4
Профиль формата                          : Apple audio with iTunes info
Идентификатор кодека                     : M4A
Размер файла                             : 43,4 Мбайт
Продолжительность                        : 6 м. 1 с.
Режим общего битрейта                    : Переменный
Общий поток                              : 1008 Кбит/сек
Альбом                                   : Игра с огнем
Альбом/Исполнитель                       : Ария
Трек                                     : Раскачаем этот мир
Трек/Положение                           : 2
Трек/Всего                               : 7
Исполнитель                              : Ария
Жанр                                     : Heavy Metal
Дата записи                              : 1989
Дата пометки                             : UTC 2014-05-29 00:04:07
Программа кодирования                    : X Lossless Decoder 20140504, QuickTime 7.7.1
Обложка                                  : Yes
Примечание                               : ExactAudioCopy v0.99pb3
iTunes_CDDB_1                            : 54094F07+178875+7+150+24292+51402+72437+90470+131317+158930
iTunes_CDDB_TrackNumber                  : 2

Аудио
Идентификатор                            : 1
Формат                                   : ALAC
Идентификатор кодека                     : alac
Идентификатор кодека/Информация          : Apple Lossless Audio Codec
Продолжительность                        : 6 м. 1 с.
Duration_LastFrame                       : -22 мс.
Вид битрейта                             : Переменный
Битрейт                                  : 995 Кбит/сек
Каналы                                   : 2 канала
Частота                                  : 44,1 КГц
Битовая глубина                          : 16 бит
Размер потока                            : 42,9 Мбайт (99%)
Язык                                     : English
Дата пометки                             : UTC 2014-05-29 00:04:07

Общее
Полное имя                               : /Users/Denis/Library/Containers/net.mediaarea.mediainfo.mac/Data/Music/iTunes/iTunes Media/Music/Ария/Игра с огнем/03 Раб страха.m4a
Формат                                   : MPEG-4
Профиль формата                          : Apple audio with iTunes info
Идентификатор кодека                     : M4A
Размер файла                             : 32,6 Мбайт
Продолжительность                        : 4 м. 40 с.
Режим общего битрейта                    : Переменный
Общий поток                              : 976 Кбит/сек
Альбом                                   : Игра с огнем
Альбом/Исполнитель                       : Ария
Трек                                     : Раб страха
Трек/Положение                           : 3
Трек/Всего                               : 7
Исполнитель                              : Ария
Жанр                                     : Heavy Metal
Дата записи                              : 1989
Дата кодирования                         : UTC 1974-02-22 05:31:59
Дата пометки                             : UTC 2014-05-29 00:04:11
Программа кодирования                    : X Lossless Decoder 20140504, QuickTime 7.7.1
Обложка                                  : Yes
Примечание                               : ExactAudioCopy v0.99pb3
iTunes_CDDB_1                            : 54094F07+178875+7+150+24292+51402+72437+90470+131317+158930
iTunes_CDDB_TrackNumber                  : 3

Аудио
Идентификатор                            : 1
Формат                                   : ALAC
Идентификатор кодека                     : alac
Идентификатор кодека/Информация          : Apple Lossless Audio Codec
Продолжительность                        : 4 м. 40 с.
Duration_LastFrame                       : -30 мс.
Вид битрейта                             : Переменный
Битрейт                                  : 960 Кбит/сек
Каналы                                   : 2 канала
Частота                                  : 44,1 КГц
Битовая глубина                          : 16 бит
Размер потока                            : 32,1 Мбайт (98%)
Язык                                     : English
Дата кодирования                         : UTC 1974-02-22 05:31:59
Дата пометки                             : UTC 2014-05-29 00:04:11

Общее
Полное имя                               : /Users/Denis/Library/Containers/net.mediaarea.mediainfo.mac/Data/Music/iTunes/iTunes Media/Music/Ария/Игра с огнем/04 Искушение.m4a
Формат                                   : MPEG-4
Профиль формата                          : Apple audio with iTunes info
Идентификатор кодека                     : M4A
Размер файла                             : 29,1 Мбайт
Продолжительность                        : 4 м. 0 с.
Режим общего битрейта                    : Переменный
Общий поток                              : 1015 Кбит/сек
Альбом                                   : Игра с огнем
Альбом/Исполнитель                       : Ария
Трек                                     : Искушение
Трек/Положение                           : 4
Трек/Всего                               : 7
Исполнитель                              : Ария
Жанр                                     : Heavy Metal
Дата записи                              : 1989
Дата кодирования                         : UTC 1974-09-04 09:52:15
Дата пометки                             : UTC 2014-05-29 00:04:13
Программа кодирования                    : X Lossless Decoder 20140504, QuickTime 7.7.1
Обложка                                  : Yes
Примечание                               : ExactAudioCopy v0.99pb3
iTunes_CDDB_1                            : 54094F07+178875+7+150+24292+51402+72437+90470+131317+158930
iTunes_CDDB_TrackNumber                  : 4

Аудио
Идентификатор                            : 1
Формат                                   : ALAC
Идентификатор кодека                     : alac
Идентификатор кодека/Информация          : Apple Lossless Audio Codec
Продолжительность                        : 4 м. 0 с.
Duration_LastFrame                       : -26 мс.
Вид битрейта                             : Переменный
Битрейт                                  : 997 Кбит/сек
Каналы                                   : 2 канала
Частота                                  : 44,1 КГц
Битовая глубина                          : 16 бит
Размер потока                            : 28,6 Мбайт (98%)
Язык                                     : English
Дата кодирования                         : UTC 1974-09-04 09:52:15
Дата пометки                             : UTC 2014-05-29 00:04:13

Общее
Полное имя                               : /Users/Denis/Library/Containers/net.mediaarea.mediainfo.mac/Data/Music/iTunes/iTunes Media/Music/Ария/Игра с огнем/05 Игра с огнём.m4a
Формат                                   : MPEG-4
Профиль формата                          : Apple audio with iTunes info
Идентификатор кодека                     : M4A
Размер файла                             : 63,8 Мбайт
Продолжительность                        : 9 м. 4 с.
Режим общего битрейта                    : Переменный
Общий поток                              : 983 Кбит/сек
Альбом                                   : Игра с огнем
Альбом/Исполнитель                       : Ария
Трек                                     : Игра с огнём
Трек/Положение                           : 5
Трек/Всего                               : 7
Исполнитель                              : Ария
Жанр                                     : Heavy Metal
Дата записи                              : 1989
Дата кодирования                         : UTC 1998-01-25 08:43:59
Дата пометки                             : UTC 2014-05-29 00:04:15
Программа кодирования                    : X Lossless Decoder 20140504, QuickTime 7.7.1
Обложка                                  : Yes
Примечание                               : ExactAudioCopy v0.99pb3
iTunes_CDDB_1                            : 54094F07+178875+7+150+24292+51402+72437+90470+131317+158930
iTunes_CDDB_TrackNumber                  : 5

Аудио
Идентификатор                            : 1
Формат                                   : ALAC
Идентификатор кодека                     : alac
Идентификатор кодека/Информация          : Apple Lossless Audio Codec
Продолжительность                        : 9 м. 4 с.
Duration_LastFrame                       : -21 мс.
Вид битрейта                             : Переменный
Битрейт                                  : 974 Кбит/сек
Каналы                                   : 2 канала
Частота                                  : 44,1 КГц
Битовая глубина                          : 16 бит
Размер потока                            : 63,3 Мбайт (99%)
Язык                                     : English
Дата кодирования                         : UTC 1998-01-25 08:43:59
Дата пометки                             : UTC 2014-05-29 00:04:15

Общее
Полное имя                               : /Users/Denis/Library/Containers/net.mediaarea.mediainfo.mac/Data/Music/iTunes/iTunes Media/Music/Ария/Игра с огнем/06 Бой продолжается.m4a
Формат                                   : MPEG-4
Профиль формата                          : Apple audio with iTunes info
Идентификатор кодека                     : M4A
Размер файла                             : 40,6 Мбайт
Продолжительность                        : 6 м. 8 с.
Режим общего битрейта                    : Переменный
Общий поток                              : 925 Кбит/сек
Альбом                                   : Игра с огнем
Альбом/Исполнитель                       : Ария
Трек                                     : Бой продолжается
Трек/Положение                           : 6
Трек/Всего                               : 7
Исполнитель                              : Ария
Жанр                                     : Heavy Metal
Дата записи                              : 1989
Дата кодирования                         : UTC 1989-07-24 11:19:43
Дата пометки                             : UTC 2014-05-29 00:04:20
Программа кодирования                    : X Lossless Decoder 20140504, QuickTime 7.7.1
Обложка                                  : Yes
Примечание                               : ExactAudioCopy v0.99pb3
iTunes_CDDB_1                            : 54094F07+178875+7+150+24292+51402+72437+90470+131317+158930
iTunes_CDDB_TrackNumber                  : 6

Аудио
Идентификатор                            : 1
Формат                                   : ALAC
Идентификатор кодека                     : alac
Идентификатор кодека/Информация          : Apple Lossless Audio Codec
Продолжительность                        : 6 м. 8 с.
Duration_LastFrame                       : -2 мс.
Вид битрейта                             : Переменный
Битрейт                                  : 912 Кбит/сек
Каналы                                   : 2 канала
Частота                                  : 44,1 КГц
Битовая глубина                          : 16 бит
Размер потока                            : 40,0 Мбайт (99%)
Язык                                     : English
Дата кодирования                         : UTC 1989-07-24 11:19:43
Дата пометки                             : UTC 2014-05-29 00:04:20

Общее
Полное имя                               : /Users/Denis/Library/Containers/net.mediaarea.mediainfo.mac/Data/Music/iTunes/iTunes Media/Music/Ария/Игра с огнем/07 Дай жару.m4a
Формат                                   : MPEG-4
Профиль формата                          : Apple audio with iTunes info
Идентификатор кодека                     : M4A
Размер файла                             : 30,6 Мбайт
Продолжительность                        : 4 м. 25 с.
Режим общего битрейта                    : Переменный
Общий поток                              : 967 Кбит/сек
Альбом                                   : Игра с огнем
Альбом/Исполнитель                       : Ария
Трек                                     : Дай жару
Трек/Положение                           : 7
Трек/Всего                               : 7
Исполнитель                              : Ария
Жанр                                     : Heavy Metal
Дата записи                              : 1989
Дата кодирования                         : UTC 2000-09-22 06:25:19
Дата пометки                             : UTC 2014-05-29 00:04:23
Программа кодирования                    : X Lossless Decoder 20140504, QuickTime 7.7.1
Обложка                                  : Yes
Примечание                               : ExactAudioCopy v0.99pb3
iTunes_CDDB_1                            : 54094F07+178875+7+150+24292+51402+72437+90470+131317+158930
iTunes_CDDB_TrackNumber                  : 7

Аудио
Идентификатор                            : 1
Формат                                   : ALAC
Идентификатор кодека                     : alac
Идентификатор кодека/Информация          : Apple Lossless Audio Codec
Продолжительность                        : 4 м. 25 с.
Duration_LastFrame                       : -74 мс.
Вид битрейта                             : Переменный
Битрейт                                  : 950 Кбит/сек
Каналы                                   : 2 канала
Частота                                  : 44,1 КГц
Битовая глубина                          : 16 бит
Размер потока                            : 30,1 Мбайт (98%)
Язык                                     : English
Дата кодирования                         : UTC 2000-09-22 06:25:19
Дата пометки                             : UTC 2014-05-29 00:04:23
Код: выделить все

-----------------------

DON'T MODIFY THIS FILE

-----------------------

PERFORMER: auCDtect Task Manager, ver. 1.6.0 RC1 build 1.6.0.1
Copyright (c) 2008-2010 y-soft. All rights reserved
http://y-soft.org

ANALYZER: auCDtect: CD records authenticity detector, version 0.8.2
Copyright (c) 2004 Oleg Berngardt. All rights reserved.
Copyright (c) 2004 Alexander Djourik. All rights reserved.

FILE: 07 Дай жару.m4a
  Size: 32129740 Hash: 0130D6E4A7FC14CF9866C0C2F003EB99 Accuracy: -m8
  Conclusion: CDDA 100%
  Signature: 2F807A6BF931696238E8BD69DD5A93F419BF3464
FILE: 06 Бой продолжается.m4a
  Size: 42557945 Hash: 944ACF1095EDF4F5D9163D423733B9F8 Accuracy: -m8
  Conclusion: CDDA 100%
  Signature: 45DA92CB6E6AF5267B2E341E90101B869FD13904
FILE: 05 Игра с огнём.m4a
  Size: 66928861 Hash: 0D180C5FA16BD6581E5E16ECECDFF88B Accuracy: -m8
  Conclusion: CDDA 100%
  Signature: A1AB97EB8C3BE61150CEDF129AF378EEBC790461
FILE: 04 Искушение.m4a
  Size: 30515060 Hash: A2911D8EA710A55316F171F6E7DF2C46 Accuracy: -m8
  Conclusion: CDDA 100%
  Signature: 964D960AE3BF4DFE55C62B9D0E482E5AFC81C90C
FILE: 03 Раб страха.m4a
  Size: 34232436 Hash: E6D6B3CD83DD70AD4547FA1AA7AE0E99 Accuracy: -m8
  Conclusion: CDDA 100%
  Signature: 20CD6B6F936C5023483E3F54E52AE36E336EBDE4
FILE: 02 Раскачаем этот мир.m4a
  Size: 45525412 Hash: 4D59C903F5538DF1D2CA5917324B9CFD Accuracy: -m8
  Conclusion: CDDA 100%
  Signature: 57A0785852C4A71F51EB844BE18B5146A9B78EA4
FILE: 01 Что вы сделали с вашей мечтой.m4a
  Size: 37528365 Hash: 15BFAEE54FCFDECDA11390281B3E86D3 Accuracy: -m8
  Conclusion: CDDA 100%
  Signature: A3B5E9CC929D02E97EC78A87D555D896615E0F4B

Все номерные альбомы группы АРИЯ в ALAC/Lossless/Tracks:
1. Мания величия (1985 год)
2. C кем ты (1986 год)
3. Герой асфальта (1987 год)
4. Игра с огнем (1989 год)
5. Кровь за кровь (1991 год)
6. Ночь короче дня (1995 год)
7. Генератор зла (1998 год)
8. Химера (2001 год)
9. Крещение огнем (2003 год)
10. Армагеддон (2006 год)
11. Феникс (2011 год)


Все альбомы (номерные, концертные, синглы трибьюты и сборники) группы АРИЯ в ALAC

Время раздачи: с 20:00 до 03:00 постоянно / часто 24/7
[NNM-Club.me]_Ariya (1989) Igra s ognem.torrent
 Торрент: Платиновая раздача  Зарегистрирован
 
Скачать


Примагнититься
 Зарегистрирован:   30 Май 2014 11:58:07
 Размер:   276 MB  (
 Рейтинг:   4.7 (Голосов: 52)
 Поблагодарили:   127
 Проверка:   Оформление проверено модератором 30 Май 2014 14:51:43
Как cкачать  ·  Как раздать  ·  Правильно оформить  ·  Поднять ратио!  
Показать сообщения:   
Начать новую тему   Ответить на тему    Торрент-трекер NNM-Club -> Аудио и Видео -> Музыка Lossless (ALAC) Часовой пояс: GMT + 3
Страница 1 из 1