Классический форум-трекер
canvas not supported
Нас вместе: 4 172 396

Ария - Генератор зла (1998) [ALAC|Tracks]<Heavy Metal>


 
 
RSS
Начать новую тему   Ответить на тему    Торрент-трекер NNM-Club -> Аудио и Видео -> Музыка Lossless (ALAC)
Автор Сообщение
Cecidit ®
Стаж: 7 лет 10 мес.
Сообщений: 129
Ratio: 39.772
Поблагодарили: 8816
100%
Откуда: Москва, МО Щелково
russia.gif
Ария - Генератор зла (1998)
Год: 1998
Жанр: Heavy Metal
Продолжительность: 00:55:13

Кодек: ALAC
Битрейт: Lossless
Тип раздачи: Tracks
Обложки: Вшиты
Кодирование: XLD + QuickTime + iTunes

«Генератор зла» — седьмой студийный альбом группы Ария. Вышел в мае 1998 года. Это также первый альбом, на котором присутствуют песни Сергея Терентьева. В песне «Пытка тишиной» Виталий Дубинин выступил в роли вокалиста.

Состав:
Валерий Кипелов — вокал
Владимир Холстинин — гитара, акустическая гитара, клавишные (10)
Сергей Терентьев — гитара, клавишные (2, 9)
Виталий Дубинин — бас, вокал (4), клавишные (1, 3 — 5, 7, 8)
Александр Манякин — барабаны

Треклист:
01. Смотри!
02. Грязь
03. Дезертир
04. Пытка Тишиной
05. Беги За Солнцем
06. Обман
07. Отшельник
08. Закат
09. Дьявольский Зной
10. Замкнутый Круг
Код:

Общее
Полное имя                               : /Users/Denis/Library/Containers/net.mediaarea.mediainfo.mac/Data/Music/iTunes/iTunes Media/Music/Ария/Генератор зла/01 Смотри.m4a
Формат                                   : MPEG-4
Профиль формата                          : Apple audio with iTunes info
Идентификатор кодека                     : M4A
Размер файла                             : 32,6 Мбайт
Продолжительность                        : 4 м. 28 с.
Режим общего битрейта                    : Переменный
Общий поток                              : 1019 Кбит/сек
Альбом                                   : Генератор зла
Альбом/Исполнитель                       : Ария
Трек                                     : Смотри
Трек/Положение                           : 1
Трек/Всего                               : 10
Исполнитель                              : Ария
Жанр                                     : Heavy Metal
Дата записи                              : 1998
Дата пометки                             : UTC 2014-05-29 08:37:16
Программа кодирования                    : X Lossless Decoder 20140504, QuickTime 7.7.1
Обложка                                  : Yes
Примечание                               : ExactAudioCopy v0.99pb3
iTunes_CDDB_1                            : 8E0CF10A+248656+10+160+20274+41555+70794+97207+125095+148925+174245+196042+218059
iTunes_CDDB_TrackNumber                  : 1

Аудио
Идентификатор                            : 1
Формат                                   : ALAC
Идентификатор кодека                     : alac
Идентификатор кодека/Информация          : Apple Lossless Audio Codec
Продолжительность                        : 4 м. 28 с.
Duration_LastFrame                       : -50 мс.
Вид битрейта                             : Переменный
Битрейт                                  : 1002 Кбит/сек
Каналы                                   : 2 канала
Частота                                  : 44,1 КГц
Битовая глубина                          : 16 бит
Размер потока                            : 32,0 Мбайт (98%)
Язык                                     : English
Дата пометки                             : UTC 2014-05-29 08:37:16

Общее
Полное имя                               : /Users/Denis/Library/Containers/net.mediaarea.mediainfo.mac/Data/Music/iTunes/iTunes Media/Music/Ария/Генератор зла/02 Грязь.m4a
Формат                                   : MPEG-4
Профиль формата                          : Apple audio with iTunes info
Идентификатор кодека                     : M4A
Размер файла                             : 35,5 Мбайт
Продолжительность                        : 4 м. 43 с.
Режим общего битрейта                    : Переменный
Общий поток                              : 1051 Кбит/сек
Альбом                                   : Генератор зла
Альбом/Исполнитель                       : Ария
Трек                                     : Грязь
Трек/Положение                           : 2
Трек/Всего                               : 10
Исполнитель                              : Ария
Жанр                                     : Heavy Metal
Дата записи                              : 1998
Дата пометки                             : UTC 2014-05-29 08:37:18
Программа кодирования                    : X Lossless Decoder 20140504, QuickTime 7.7.1
Обложка                                  : Yes
Примечание                               : ExactAudioCopy v0.99pb3
iTunes_CDDB_1                            : 8E0CF10A+248656+10+160+20274+41555+70794+97207+125095+148925+174245+196042+218059
iTunes_CDDB_TrackNumber                  : 2

Аудио
Идентификатор                            : 1
Формат                                   : ALAC
Идентификатор кодека                     : alac
Идентификатор кодека/Информация          : Apple Lossless Audio Codec
Продолжительность                        : 4 м. 43 с.
Duration_LastFrame                       : -1 мс.
Вид битрейта                             : Переменный
Битрейт                                  : 1035 Кбит/сек
Каналы                                   : 2 канала
Частота                                  : 44,1 КГц
Битовая глубина                          : 16 бит
Размер потока                            : 35,0 Мбайт (98%)
Язык                                     : English
Дата пометки                             : UTC 2014-05-29 08:37:18

Общее
Полное имя                               : /Users/Denis/Library/Containers/net.mediaarea.mediainfo.mac/Data/Music/iTunes/iTunes Media/Music/Ария/Генератор зла/03 Дезертир.m4a
Формат                                   : MPEG-4
Профиль формата                          : Apple audio with iTunes info
Идентификатор кодека                     : M4A
Размер файла                             : 46,9 Мбайт
Продолжительность                        : 6 м. 29 с.
Режим общего битрейта                    : Переменный
Общий поток                              : 1009 Кбит/сек
Альбом                                   : Генератор зла
Альбом/Исполнитель                       : Ария
Трек                                     : Дезертир
Трек/Положение                           : 3
Трек/Всего                               : 10
Исполнитель                              : Ария
Жанр                                     : Heavy Metal
Дата записи                              : 1998
Дата пометки                             : UTC 2014-05-29 08:37:20
Программа кодирования                    : X Lossless Decoder 20140504, QuickTime 7.7.1
Обложка                                  : Yes
Примечание                               : ExactAudioCopy v0.99pb3
iTunes_CDDB_1                            : 8E0CF10A+248656+10+160+20274+41555+70794+97207+125095+148925+174245+196042+218059
iTunes_CDDB_TrackNumber                  : 3

Аудио
Идентификатор                            : 1
Формат                                   : ALAC
Идентификатор кодека                     : alac
Идентификатор кодека/Информация          : Apple Lossless Audio Codec
Продолжительность                        : 6 м. 29 с.
Duration_LastFrame                       : -56 мс.
Вид битрейта                             : Переменный
Битрейт                                  : 997 Кбит/сек
Каналы                                   : 2 канала
Частота                                  : 44,1 КГц
Битовая глубина                          : 16 бит
Размер потока                            : 46,4 Мбайт (99%)
Язык                                     : English
Дата пометки                             : UTC 2014-05-29 08:37:20

Общее
Полное имя                               : /Users/Denis/Library/Containers/net.mediaarea.mediainfo.mac/Data/Music/iTunes/iTunes Media/Music/Ария/Генератор зла/04 Пытка тишиной.m4a
Формат                                   : MPEG-4
Профиль формата                          : Apple audio with iTunes info
Идентификатор кодека                     : M4A
Размер файла                             : 41,7 Мбайт
Продолжительность                        : 5 м. 52 с.
Режим общего битрейта                    : Переменный
Общий поток                              : 994 Кбит/сек
Альбом                                   : Генератор зла
Альбом/Исполнитель                       : Ария
Трек                                     : Пытка тишиной
Трек/Положение                           : 4
Трек/Всего                               : 10
Исполнитель                              : Ария
Жанр                                     : Heavy Metal
Дата записи                              : 1998
Дата пометки                             : UTC 2014-05-29 08:37:24
Программа кодирования                    : X Lossless Decoder 20140504, QuickTime 7.7.1
Обложка                                  : Yes
Примечание                               : ExactAudioCopy v0.99pb3
iTunes_CDDB_1                            : 8E0CF10A+248656+10+160+20274+41555+70794+97207+125095+148925+174245+196042+218059
iTunes_CDDB_TrackNumber                  : 4

Аудио
Идентификатор                            : 1
Формат                                   : ALAC
Идентификатор кодека                     : alac
Идентификатор кодека/Информация          : Apple Lossless Audio Codec
Продолжительность                        : 5 м. 52 с.
Duration_LastFrame                       : -27 мс.
Вид битрейта                             : Переменный
Битрейт                                  : 980 Кбит/сек
Каналы                                   : 2 канала
Частота                                  : 44,1 КГц
Битовая глубина                          : 16 бит
Размер потока                            : 41,2 Мбайт (99%)
Язык                                     : English
Дата пометки                             : UTC 2014-05-29 08:37:24

Общее
Полное имя                               : /Users/Denis/Library/Containers/net.mediaarea.mediainfo.mac/Data/Music/iTunes/iTunes Media/Music/Ария/Генератор зла/05 Беги за солнцем.m4a
Формат                                   : MPEG-4
Профиль формата                          : Apple audio with iTunes info
Идентификатор кодека                     : M4A
Размер файла                             : 45,3 Мбайт
Продолжительность                        : 6 м. 11 с.
Режим общего битрейта                    : Переменный
Общий поток                              : 1021 Кбит/сек
Альбом                                   : Генератор зла
Альбом/Исполнитель                       : Ария
Трек                                     : Беги за солнцем
Трек/Положение                           : 5
Трек/Всего                               : 10
Исполнитель                              : Ария
Жанр                                     : Heavy Metal
Дата записи                              : 1998
Дата пометки                             : UTC 2014-05-29 08:37:27
Программа кодирования                    : X Lossless Decoder 20140504, QuickTime 7.7.1
Обложка                                  : Yes
Примечание                               : ExactAudioCopy v0.99pb3
iTunes_CDDB_1                            : 8E0CF10A+248656+10+160+20274+41555+70794+97207+125095+148925+174245+196042+218059
iTunes_CDDB_TrackNumber                  : 5

Аудио
Идентификатор                            : 1
Формат                                   : ALAC
Идентификатор кодека                     : alac
Идентификатор кодека/Информация          : Apple Lossless Audio Codec
Продолжительность                        : 6 м. 11 с.
Duration_LastFrame                       : -51 мс.
Вид битрейта                             : Переменный
Битрейт                                  : 1008 Кбит/сек
Каналы                                   : 2 канала
Частота                                  : 44,1 КГц
Битовая глубина                          : 16 бит
Размер потока                            : 44,7 Мбайт (99%)
Язык                                     : English
Дата пометки                             : UTC 2014-05-29 08:37:27

Общее
Полное имя                               : /Users/Denis/Library/Containers/net.mediaarea.mediainfo.mac/Data/Music/iTunes/iTunes Media/Music/Ария/Генератор зла/06 Обман.m4a
Формат                                   : MPEG-4
Профиль формата                          : Apple audio with iTunes info
Идентификатор кодека                     : M4A
Размер файла                             : 38,7 Мбайт
Продолжительность                        : 5 м. 17 с.
Режим общего битрейта                    : Переменный
Общий поток                              : 1020 Кбит/сек
Альбом                                   : Генератор зла
Альбом/Исполнитель                       : Ария
Трек                                     : Обман
Трек/Положение                           : 6
Трек/Всего                               : 10
Исполнитель                              : Ария
Жанр                                     : Heavy Metal
Дата записи                              : 1998
Дата пометки                             : UTC 2014-05-29 08:37:31
Программа кодирования                    : X Lossless Decoder 20140504, QuickTime 7.7.1
Обложка                                  : Yes
Примечание                               : ExactAudioCopy v0.99pb3
iTunes_CDDB_1                            : 8E0CF10A+248656+10+160+20274+41555+70794+97207+125095+148925+174245+196042+218059
iTunes_CDDB_TrackNumber                  : 6

Аудио
Идентификатор                            : 1
Формат                                   : ALAC
Идентификатор кодека                     : alac
Идентификатор кодека/Информация          : Apple Lossless Audio Codec
Продолжительность                        : 5 м. 17 с.
Duration_LastFrame                       : -9 мс.
Вид битрейта                             : Переменный
Битрейт                                  : 1006 Кбит/сек
Каналы                                   : 2 канала
Частота                                  : 44,1 КГц
Битовая глубина                          : 16 бит
Размер потока                            : 38,1 Мбайт (99%)
Язык                                     : English
Дата пометки                             : UTC 2014-05-29 08:37:31

Общее
Полное имя                               : /Users/Denis/Library/Containers/net.mediaarea.mediainfo.mac/Data/Music/iTunes/iTunes Media/Music/Ария/Генератор зла/07 Отшельник.m4a
Формат                                   : MPEG-4
Профиль формата                          : Apple audio with iTunes info
Идентификатор кодека                     : M4A
Размер файла                             : 42,1 Мбайт
Продолжительность                        : 5 м. 37 с.
Режим общего битрейта                    : Переменный
Общий поток                              : 1046 Кбит/сек
Альбом                                   : Генератор зла
Альбом/Исполнитель                       : Ария
Трек                                     : Отшельник
Трек/Положение                           : 7
Трек/Всего                               : 10
Исполнитель                              : Ария
Жанр                                     : Heavy Metal
Дата записи                              : 1998
Дата пометки                             : UTC 2014-05-29 08:37:34
Программа кодирования                    : X Lossless Decoder 20140504, QuickTime 7.7.1
Обложка                                  : Yes
Примечание                               : ExactAudioCopy v0.99pb3
iTunes_CDDB_1                            : 8E0CF10A+248656+10+160+20274+41555+70794+97207+125095+148925+174245+196042+218059
iTunes_CDDB_TrackNumber                  : 7

Аудио
Идентификатор                            : 1
Формат                                   : ALAC
Идентификатор кодека                     : alac
Идентификатор кодека/Информация          : Apple Lossless Audio Codec
Продолжительность                        : 5 м. 37 с.
Duration_LastFrame                       : -18 мс.
Вид битрейта                             : Переменный
Битрейт                                  : 1032 Кбит/сек
Каналы                                   : 2 канала
Частота                                  : 44,1 КГц
Битовая глубина                          : 16 бит
Размер потока                            : 41,6 Мбайт (99%)
Язык                                     : English
Дата пометки                             : UTC 2014-05-29 08:37:34

Общее
Полное имя                               : /Users/Denis/Library/Containers/net.mediaarea.mediainfo.mac/Data/Music/iTunes/iTunes Media/Music/Ария/Генератор зла/08 Закат.m4a
Формат                                   : MPEG-4
Профиль формата                          : Apple audio with iTunes info
Идентификатор кодека                     : M4A
Размер файла                             : 31,4 Мбайт
Продолжительность                        : 4 м. 50 с.
Режим общего битрейта                    : Переменный
Общий поток                              : 906 Кбит/сек
Альбом                                   : Генератор зла
Альбом/Исполнитель                       : Ария
Трек                                     : Закат
Трек/Положение                           : 8
Трек/Всего                               : 10
Исполнитель                              : Ария
Жанр                                     : Heavy Metal
Дата записи                              : 1998
Дата пометки                             : UTC 2014-05-29 08:37:38
Программа кодирования                    : X Lossless Decoder 20140504, QuickTime 7.7.1
Обложка                                  : Yes
Примечание                               : ExactAudioCopy v0.99pb3
iTunes_CDDB_1                            : 8E0CF10A+248656+10+160+20274+41555+70794+97207+125095+148925+174245+196042+218059
iTunes_CDDB_TrackNumber                  : 8

Аудио
Идентификатор                            : 1
Формат                                   : ALAC
Идентификатор кодека                     : alac
Идентификатор кодека/Информация          : Apple Lossless Audio Codec
Продолжительность                        : 4 м. 50 с.
Duration_LastFrame                       : -87 мс.
Вид битрейта                             : Переменный
Битрейт                                  : 890 Кбит/сек
Каналы                                   : 2 канала
Частота                                  : 44,1 КГц
Битовая глубина                          : 16 бит
Размер потока                            : 30,8 Мбайт (98%)
Язык                                     : English
Дата пометки                             : UTC 2014-05-29 08:37:38

Общее
Полное имя                               : /Users/Denis/Library/Containers/net.mediaarea.mediainfo.mac/Data/Music/iTunes/iTunes Media/Music/Ария/Генератор зла/09 Дьявольский зной.m4a
Формат                                   : MPEG-4
Профиль формата                          : Apple audio with iTunes info
Идентификатор кодека                     : M4A
Размер файла                             : 36,3 Мбайт
Продолжительность                        : 4 м. 53 с.
Режим общего битрейта                    : Переменный
Общий поток                              : 1038 Кбит/сек
Альбом                                   : Генератор зла
Альбом/Исполнитель                       : Ария
Трек                                     : Дьявольский зной
Трек/Положение                           : 9
Трек/Всего                               : 10
Исполнитель                              : Ария
Жанр                                     : Heavy Metal
Дата записи                              : 1998
Дата пометки                             : UTC 2014-05-29 08:37:40
Программа кодирования                    : X Lossless Decoder 20140504, QuickTime 7.7.1
Обложка                                  : Yes
Примечание                               : ExactAudioCopy v0.99pb3
iTunes_CDDB_1                            : 8E0CF10A+248656+10+160+20274+41555+70794+97207+125095+148925+174245+196042+218059
iTunes_CDDB_TrackNumber                  : 9

Аудио
Идентификатор                            : 1
Формат                                   : ALAC
Идентификатор кодека                     : alac
Идентификатор кодека/Информация          : Apple Lossless Audio Codec
Продолжительность                        : 4 м. 53 с.
Duration_LastFrame                       : -33 мс.
Вид битрейта                             : Переменный
Битрейт                                  : 1023 Кбит/сек
Каналы                                   : 2 канала
Частота                                  : 44,1 КГц
Битовая глубина                          : 16 бит
Размер потока                            : 35,8 Мбайт (99%)
Язык                                     : English
Дата пометки                             : UTC 2014-05-29 08:37:40

Общее
Полное имя                               : /Users/Denis/Library/Containers/net.mediaarea.mediainfo.mac/Data/Music/iTunes/iTunes Media/Music/Ария/Генератор зла/10 Замкнутый круг.m4a
Формат                                   : MPEG-4
Профиль формата                          : Apple audio with iTunes info
Идентификатор кодека                     : M4A
Размер файла                             : 48,8 Мбайт
Продолжительность                        : 6 м. 47 с.
Режим общего битрейта                    : Переменный
Общий поток                              : 1003 Кбит/сек
Альбом                                   : Генератор зла
Альбом/Исполнитель                       : Ария
Трек                                     : Замкнутый круг
Трек/Положение                           : 10
Трек/Всего                               : 10
Исполнитель                              : Ария
Жанр                                     : Heavy Metal
Дата записи                              : 1998
Дата кодирования                         : UTC 1970-02-18 12:49:19
Дата пометки                             : UTC 2014-05-29 08:37:43
Программа кодирования                    : X Lossless Decoder 20140504, QuickTime 7.7.1
Обложка                                  : Yes
Примечание                               : ExactAudioCopy v0.99pb3
iTunes_CDDB_1                            : 8E0CF10A+248656+10+160+20274+41555+70794+97207+125095+148925+174245+196042+218059
iTunes_CDDB_TrackNumber                  : 10

Аудио
Идентификатор                            : 1
Формат                                   : ALAC
Идентификатор кодека                     : alac
Идентификатор кодека/Информация          : Apple Lossless Audio Codec
Продолжительность                        : 6 м. 47 с.
Duration_LastFrame                       : -61 мс.
Вид битрейта                             : Переменный
Битрейт                                  : 991 Кбит/сек
Каналы                                   : 2 канала
Частота                                  : 44,1 КГц
Битовая глубина                          : 16 бит
Размер потока                            : 48,2 Мбайт (99%)
Язык                                     : English
Дата кодирования                         : UTC 1970-02-18 12:49:19
Дата пометки                             : UTC 2014-05-29 08:37:43
Код:

-----------------------

DON'T MODIFY THIS FILE

-----------------------

PERFORMER: auCDtect Task Manager, ver. 1.6.0 RC1 build 1.6.0.1
Copyright (c) 2008-2010 y-soft. All rights reserved
http://y-soft.org

ANALYZER: auCDtect: CD records authenticity detector, version 0.8.2
Copyright (c) 2004 Oleg Berngardt. All rights reserved.
Copyright (c) 2004 Alexander Djourik. All rights reserved.

FILE: 10 Замкнутый круг.m4a
  Size: 51146988 Hash: B2EE1F6DA28C5A42609E96E516097969 Accuracy: -m8
  Conclusion: CDDA 100%
  Signature: 186C6406509BC8A599196AA41634B2E4CB3B4A0C
FILE: 09 Дьявольский зной.m4a
  Size: 38093481 Hash: 24787CD04876115113BFA01E80B39482 Accuracy: -m8
  Conclusion: CDDA 100%
  Signature: 1711E27F8A7A8245DAEE5D2C6C225480C01C85C0
FILE: 08 Закат.m4a
  Size: 32906963 Hash: 4074DCF87543EA39C16017537E77F543 Accuracy: -m8
  Conclusion: CDDA 100%
  Signature: 4D8F41C95B9694EACEF4256285D9994EB0666FF2
FILE: 07 Отшельник.m4a
  Size: 44158860 Hash: EBC7E758C0E913331C75D7AA45D641AA Accuracy: -m8
  Conclusion: CDDA 100%
  Signature: B292A7EA2D3FC7FD6A306663CCD38FBD68F654CC
FILE: 06 Обман.m4a
  Size: 40528094 Hash: D48A27BBD9CAEECD94FCE9BE50EECBF1 Accuracy: -m8
  Conclusion: CDDA 100%
  Signature: 3B598629BA6A855AFBE8BCEC0EEED96F714212AE
FILE: 05 Беги за солнцем.m4a
  Size: 47459754 Hash: 64BA8009BBFB0605CA4F83D456331E1F Accuracy: -m8
  Conclusion: CDDA 100%
  Signature: 6A7A6BEB61AF5656D36F245648DC3183BEC5D61E
FILE: 04 Пытка тишиной.m4a
  Size: 43742115 Hash: 5AA9286E9A0F7AEF6EDBC9CAFAB1719D Accuracy: -m8
  Conclusion: CDDA 100%
  Signature: 0B25F015E9CF1E87A17F6DD2E712A765D82FFBB5
FILE: 03 Дезертир.m4a
  Size: 49191708 Hash: 9C759AD3E58DAEF4EB5BBB461BCF2D25 Accuracy: -m8
  Conclusion: CDDA 100%
  Signature: 269F9A85422098541015AA59815CCE6890028C19
FILE: 02 Грязь.m4a
  Size: 37270864 Hash: CDCAB4A0C7450AD6D7A2F834109D26B1 Accuracy: -m8
  Conclusion: CDDA 100%
  Signature: 9E27F70AB3A21845076313B45029219F45421732
FILE: 01 Смотри.m4a
  Size: 34171004 Hash: 910A740183E4D52554DFE903F8B39F24 Accuracy: -m8
  Conclusion: CDDA 100%
  Signature: 90BDBCC770B74904E757512D24F242028550436F

Все номерные альбомы группы АРИЯ в ALAC/Lossless/Tracks:
1. Мания величия (1985 год)
2. C кем ты (1986 год)
3. Герой асфальта (1987 год)
4. Игра с огнем (1989 год)
5. Кровь за кровь (1991 год)
6. Ночь короче дня (1995 год)
7. Генератор зла (1998 год)
8. Химера (2001 год)
9. Крещение огнем (2003 год)
10. Армагеддон (2006 год)
11. Феникс (2011 год)


Все альбомы (номерные, концертные, синглы трибьюты и сборники) группы АРИЯ в ALAC

Время раздачи: с 20:00 до 03:00 постоянно / часто 24/7
[NNM-Club.me]_Ariya (1998) Generator zla.torrent
 Торрент: Платиновая раздача  Зарегистрирован
 
Скачать


Примагнититься
 Зарегистрирован:   30 Май 2014 12:00:22
 Размер:   399 MB  (
 Рейтинг:   4.7 (Голосов: 60)
 Поблагодарили:   117
 Проверка:   Оформление проверено модератором 30 Май 2014 14:52:21
Как cкачать  ·  Как раздать  ·  Правильно оформить  ·  Поднять ратио!  
BarShadow
Стаж: 10 лет 9 мес.
Сообщений: 17264
Ratio: 46.988
Поблагодарили: 20080
100%
Откуда: Пятая планета от Солнца
wild_hogs.gif
Спасибо.
Показать сообщения:   
Начать новую тему   Ответить на тему    Торрент-трекер NNM-Club -> Аудио и Видео -> Музыка Lossless (ALAC) Часовой пояс: GMT + 3
Страница 1 из 1