Классический форум-трекер
canvas not supported
Нас вместе: 4 166 427

Ария - Армагеддон (2006) [ALAC|Tracks]<Heavy Metal>


 
 
RSS
Начать новую тему   Ответить на тему    Торрент-трекер NNM-Club -> Аудио и Видео -> Музыка Lossless (ALAC)
Автор Сообщение
Cecidit ®
Стаж: 7 лет 8 мес.
Сообщений: 129
Ratio: 39.772
Поблагодарили: 8806
100%
Откуда: Москва, МО Щелково
russia.gif
Ария - Армагеддон (2006)
Год: 2006
Жанр: Heavy Metal
Продолжительность: 00:54:52

Кодек: ALAC
Битрейт: Lossless
Тип раздачи: Tracks
Обложки: Вшиты
Кодирование: XLD + QuickTime + iTunes

«Армагеддон» — десятый студийный альбом группы Ария. Вышел 15 сентября 2006 года. Последний из номерных альбомов, на которых в качестве вокалиста выступал Артур Беркут.

Состав:
Артур Беркут — вокал
Владимир Холстинин — гитара
Сергей Попов — гитара
Виталий Дубинин — бас, вокал
Максим Удалов — барабаны

Треклист:
01. Последний Закат
02. Меченый Злом
03. Страж Империи
04. Новый Крестовый Поход
05. Мессия
06. Кровь Королей
07. Викинг
08. Чужой
09. Свет Былой Любви
10. Твой День
Код: выделить все

Общее
Полное имя                               : /Users/Denis/Library/Containers/net.mediaarea.mediainfo.mac/Data/Music/iTunes/iTunes Media/Music/Ария/Армагеддон/01 Последний закат.m4a
Формат                                   : MPEG-4
Профиль формата                          : Apple audio with iTunes info
Идентификатор кодека                     : M4A
Размер файла                             : 40,2 Мбайт
Продолжительность                        : 5 м. 0 с.
Режим общего битрейта                    : Переменный
Общий поток                              : 1120 Кбит/сек
Альбом                                   : Армагеддон
Альбом/Исполнитель                       : Ария
Трек                                     : Последний закат
Трек/Положение                           : 1
Трек/Всего                               : 10
Исполнитель                              : Ария
Жанр                                     : Heavy Metal
Дата записи                              : 2006
Дата кодирования                         : UTC 2032-11-18 04:06:39
Дата пометки                             : UTC 2014-05-29 09:06:25
Программа кодирования                    : X Lossless Decoder 20140504, QuickTime 7.7.1
Обложка                                  : Yes
Примечание                               : ExactAudioCopy v0.99pb4
iTunes_CDDB_1                            : 7F0CDC0A+247090+10+150+22722+50139+71411+93431+114320+154833+180984+203753+223118
iTunes_CDDB_TrackNumber                  : 1

Аудио
Идентификатор                            : 1
Формат                                   : ALAC
Идентификатор кодека                     : alac
Идентификатор кодека/Информация          : Apple Lossless Audio Codec
Продолжительность                        : 5 м. 0 с.
Duration_LastFrame                       : -63 мс.
Вид битрейта                             : Переменный
Битрейт                                  : 1105 Кбит/сек
Каналы                                   : 2 канала
Частота                                  : 44,1 КГц
Битовая глубина                          : 16 бит
Размер потока                            : 39,7 Мбайт (99%)
Язык                                     : English
Дата кодирования                         : UTC 2032-11-18 04:06:39
Дата пометки                             : UTC 2014-05-29 09:06:25

Общее
Полное имя                               : /Users/Denis/Library/Containers/net.mediaarea.mediainfo.mac/Data/Music/iTunes/iTunes Media/Music/Ария/Армагеддон/02 Меченый злом.m4a
Формат                                   : MPEG-4
Профиль формата                          : Apple audio with iTunes info
Идентификатор кодека                     : M4A
Размер файла                             : 48,1 Мбайт
Продолжительность                        : 6 м. 5 с.
Режим общего битрейта                    : Переменный
Общий поток                              : 1105 Кбит/сек
Альбом                                   : Армагеддон
Альбом/Исполнитель                       : Ария
Трек                                     : Меченый злом
Трек/Положение                           : 2
Трек/Всего                               : 10
Исполнитель                              : Ария
Жанр                                     : Heavy Metal
Дата записи                              : 2006
Дата кодирования                         : UTC 2035-01-03 21:27:43
Дата пометки                             : UTC 2014-05-29 09:06:28
Программа кодирования                    : X Lossless Decoder 20140504, QuickTime 7.7.1
Обложка                                  : Yes
Примечание                               : ExactAudioCopy v0.99pb4
iTunes_CDDB_1                            : 7F0CDC0A+247090+10+150+22722+50139+71411+93431+114320+154833+180984+203753+223118
iTunes_CDDB_TrackNumber                  : 2

Аудио
Идентификатор                            : 1
Формат                                   : ALAC
Идентификатор кодека                     : alac
Идентификатор кодека/Информация          : Apple Lossless Audio Codec
Продолжительность                        : 6 м. 5 с.
Duration_LastFrame                       : -15 мс.
Вид битрейта                             : Переменный
Битрейт                                  : 1092 Кбит/сек
Каналы                                   : 2 канала
Частота                                  : 44,1 КГц
Битовая глубина                          : 16 бит
Размер потока                            : 47,6 Мбайт (99%)
Язык                                     : English
Дата кодирования                         : UTC 2035-01-03 21:27:43
Дата пометки                             : UTC 2014-05-29 09:06:28

Общее
Полное имя                               : /Users/Denis/Library/Containers/net.mediaarea.mediainfo.mac/Data/Music/iTunes/iTunes Media/Music/Ария/Армагеддон/03 Страж империи.m4a
Формат                                   : MPEG-4
Профиль формата                          : Apple audio with iTunes info
Идентификатор кодека                     : M4A
Размер файла                             : 35,4 Мбайт
Продолжительность                        : 4 м. 43 с.
Режим общего битрейта                    : Переменный
Общий поток                              : 1047 Кбит/сек
Альбом                                   : Армагеддон
Альбом/Исполнитель                       : Ария
Трек                                     : Страж империи
Трек/Положение                           : 3
Трек/Всего                               : 10
Исполнитель                              : Ария
Жанр                                     : Heavy Metal
Дата записи                              : 2006
Дата пометки                             : UTC 2014-05-29 09:06:31
Программа кодирования                    : X Lossless Decoder 20140504, QuickTime 7.7.1
Обложка                                  : Yes
Примечание                               : ExactAudioCopy v0.99pb4
iTunes_CDDB_1                            : 7F0CDC0A+247090+10+150+22722+50139+71411+93431+114320+154833+180984+203753+223118
iTunes_CDDB_TrackNumber                  : 3

Аудио
Идентификатор                            : 1
Формат                                   : ALAC
Идентификатор кодека                     : alac
Идентификатор кодека/Информация          : Apple Lossless Audio Codec
Продолжительность                        : 4 м. 43 с.
Duration_LastFrame                       : -28 мс.
Вид битрейта                             : Переменный
Битрейт                                  : 1031 Кбит/сек
Каналы                                   : 2 канала
Частота                                  : 44,1 КГц
Битовая глубина                          : 16 бит
Размер потока                            : 34,9 Мбайт (99%)
Язык                                     : English
Дата пометки                             : UTC 2014-05-29 09:06:31

Общее
Полное имя                               : /Users/Denis/Library/Containers/net.mediaarea.mediainfo.mac/Data/Music/iTunes/iTunes Media/Music/Ария/Армагеддон/04 Новый крестовый поход.m4a
Формат                                   : MPEG-4
Профиль формата                          : Apple audio with iTunes info
Идентификатор кодека                     : M4A
Размер файла                             : 37,7 Мбайт
Продолжительность                        : 4 м. 53 с.
Режим общего битрейта                    : Переменный
Общий поток                              : 1077 Кбит/сек
Альбом                                   : Армагеддон
Альбом/Исполнитель                       : Ария
Трек                                     : Новый крестовый поход
Трек/Положение                           : 4
Трек/Всего                               : 10
Исполнитель                              : Ария
Жанр                                     : Heavy Metal
Дата записи                              : 2006
Дата пометки                             : UTC 2014-05-29 09:06:34
Программа кодирования                    : X Lossless Decoder 20140504, QuickTime 7.7.1
Обложка                                  : Yes
Примечание                               : ExactAudioCopy v0.99pb4
iTunes_CDDB_1                            : 7F0CDC0A+247090+10+150+22722+50139+71411+93431+114320+154833+180984+203753+223118
iTunes_CDDB_TrackNumber                  : 4

Аудио
Идентификатор                            : 1
Формат                                   : ALAC
Идентификатор кодека                     : alac
Идентификатор кодека/Информация          : Apple Lossless Audio Codec
Продолжительность                        : 4 м. 53 с.
Duration_LastFrame                       : -86 мс.
Вид битрейта                             : Переменный
Битрейт                                  : 1062 Кбит/сек
Каналы                                   : 2 канала
Частота                                  : 44,1 КГц
Битовая глубина                          : 16 бит
Размер потока                            : 37,2 Мбайт (99%)
Язык                                     : English
Дата пометки                             : UTC 2014-05-29 09:06:34

Общее
Полное имя                               : /Users/Denis/Library/Containers/net.mediaarea.mediainfo.mac/Data/Music/iTunes/iTunes Media/Music/Ария/Армагеддон/05 Мессия.m4a
Формат                                   : MPEG-4
Профиль формата                          : Apple audio with iTunes info
Идентификатор кодека                     : M4A
Размер файла                             : 37,3 Мбайт
Продолжительность                        : 4 м. 38 с.
Режим общего битрейта                    : Переменный
Общий поток                              : 1122 Кбит/сек
Альбом                                   : Армагеддон
Альбом/Исполнитель                       : Ария
Трек                                     : Мессия
Трек/Положение                           : 5
Трек/Всего                               : 10
Исполнитель                              : Ария
Жанр                                     : Heavy Metal
Дата записи                              : 2006
Дата пометки                             : UTC 2014-05-29 09:06:37
Программа кодирования                    : X Lossless Decoder 20140504, QuickTime 7.7.1
Обложка                                  : Yes
Примечание                               : ExactAudioCopy v0.99pb4
iTunes_CDDB_1                            : 7F0CDC0A+247090+10+150+22722+50139+71411+93431+114320+154833+180984+203753+223118
iTunes_CDDB_TrackNumber                  : 5

Аудио
Идентификатор                            : 1
Формат                                   : ALAC
Идентификатор кодека                     : alac
Идентификатор кодека/Информация          : Apple Lossless Audio Codec
Продолжительность                        : 4 м. 38 с.
Duration_LastFrame                       : -27 мс.
Вид битрейта                             : Переменный
Битрейт                                  : 1106 Кбит/сек
Каналы                                   : 2 канала
Частота                                  : 44,1 КГц
Битовая глубина                          : 16 бит
Размер потока                            : 36,7 Мбайт (99%)
Язык                                     : English
Дата пометки                             : UTC 2014-05-29 09:06:37

Общее
Полное имя                               : /Users/Denis/Library/Containers/net.mediaarea.mediainfo.mac/Data/Music/iTunes/iTunes Media/Music/Ария/Армагеддон/06 Кровь королей.m4a
Формат                                   : MPEG-4
Профиль формата                          : Apple audio with iTunes info
Идентификатор кодека                     : M4A
Размер файла                             : 66,2 Мбайт
Продолжительность                        : 9 м. 0 с.
Режим общего битрейта                    : Переменный
Общий поток                              : 1028 Кбит/сек
Альбом                                   : Армагеддон
Альбом/Исполнитель                       : Ария
Трек                                     : Кровь королей
Трек/Положение                           : 6
Трек/Всего                               : 10
Исполнитель                              : Ария
Жанр                                     : Heavy Metal
Дата записи                              : 2006
Дата пометки                             : UTC 2014-05-29 09:06:39
Программа кодирования                    : X Lossless Decoder 20140504, QuickTime 7.7.1
Обложка                                  : Yes
Примечание                               : ExactAudioCopy v0.99pb4
iTunes_CDDB_1                            : 7F0CDC0A+247090+10+150+22722+50139+71411+93431+114320+154833+180984+203753+223118
iTunes_CDDB_TrackNumber                  : 6

Аудио
Идентификатор                            : 1
Формат                                   : ALAC
Идентификатор кодека                     : alac
Идентификатор кодека/Информация          : Apple Lossless Audio Codec
Продолжительность                        : 9 м. 0 с.
Duration_LastFrame                       : -16 мс.
Вид битрейта                             : Переменный
Битрейт                                  : 1019 Кбит/сек
Каналы                                   : 2 канала
Частота                                  : 44,1 КГц
Битовая глубина                          : 16 бит
Размер потока                            : 65,6 Мбайт (99%)
Язык                                     : English
Дата пометки                             : UTC 2014-05-29 09:06:39

Общее
Полное имя                               : /Users/Denis/Library/Containers/net.mediaarea.mediainfo.mac/Data/Music/iTunes/iTunes Media/Music/Ария/Армагеддон/07 Викинг.m4a
Формат                                   : MPEG-4
Профиль формата                          : Apple audio with iTunes info
Идентификатор кодека                     : M4A
Размер файла                             : 43,1 Мбайт
Продолжительность                        : 5 м. 48 с.
Режим общего битрейта                    : Переменный
Общий поток                              : 1037 Кбит/сек
Альбом                                   : Армагеддон
Альбом/Исполнитель                       : Ария
Трек                                     : Викинг
Трек/Положение                           : 7
Трек/Всего                               : 10
Исполнитель                              : Ария
Жанр                                     : Heavy Metal
Дата записи                              : 2006
Дата пометки                             : UTC 2014-05-29 09:06:45
Программа кодирования                    : X Lossless Decoder 20140504, QuickTime 7.7.1
Обложка                                  : Yes
Примечание                               : ExactAudioCopy v0.99pb4
iTunes_CDDB_1                            : 7F0CDC0A+247090+10+150+22722+50139+71411+93431+114320+154833+180984+203753+223118
iTunes_CDDB_TrackNumber                  : 7

Аудио
Идентификатор                            : 1
Формат                                   : ALAC
Идентификатор кодека                     : alac
Идентификатор кодека/Информация          : Apple Lossless Audio Codec
Продолжительность                        : 5 м. 48 с.
Duration_LastFrame                       : -84 мс.
Вид битрейта                             : Переменный
Битрейт                                  : 1024 Кбит/сек
Каналы                                   : 2 канала
Частота                                  : 44,1 КГц
Битовая глубина                          : 16 бит
Размер потока                            : 42,6 Мбайт (99%)
Язык                                     : English
Дата пометки                             : UTC 2014-05-29 09:06:45

Общее
Полное имя                               : /Users/Denis/Library/Containers/net.mediaarea.mediainfo.mac/Data/Music/iTunes/iTunes Media/Music/Ария/Армагеддон/08 Чужой.m4a
Формат                                   : MPEG-4
Профиль формата                          : Apple audio with iTunes info
Идентификатор кодека                     : M4A
Размер файла                             : 38,0 Мбайт
Продолжительность                        : 5 м. 3 с.
Режим общего битрейта                    : Переменный
Общий поток                              : 1050 Кбит/сек
Альбом                                   : Армагеддон
Альбом/Исполнитель                       : Ария
Трек                                     : Чужой
Трек/Положение                           : 8
Трек/Всего                               : 10
Исполнитель                              : Ария
Жанр                                     : Heavy Metal
Дата записи                              : 2006
Дата пометки                             : UTC 2014-05-29 09:06:48
Программа кодирования                    : X Lossless Decoder 20140504, QuickTime 7.7.1
Обложка                                  : Yes
Примечание                               : ExactAudioCopy v0.99pb4
iTunes_CDDB_1                            : 7F0CDC0A+247090+10+150+22722+50139+71411+93431+114320+154833+180984+203753+223118
iTunes_CDDB_TrackNumber                  : 8

Аудио
Идентификатор                            : 1
Формат                                   : ALAC
Идентификатор кодека                     : alac
Идентификатор кодека/Информация          : Apple Lossless Audio Codec
Продолжительность                        : 5 м. 3 с.
Duration_LastFrame                       : -37 мс.
Вид битрейта                             : Переменный
Битрейт                                  : 1035 Кбит/сек
Каналы                                   : 2 канала
Частота                                  : 44,1 КГц
Битовая глубина                          : 16 бит
Размер потока                            : 37,5 Мбайт (99%)
Язык                                     : English
Дата пометки                             : UTC 2014-05-29 09:06:48

Общее
Полное имя                               : /Users/Denis/Library/Containers/net.mediaarea.mediainfo.mac/Data/Music/iTunes/iTunes Media/Music/Ария/Армагеддон/09 Свет былой любви.m4a
Формат                                   : MPEG-4
Профиль формата                          : Apple audio with iTunes info
Идентификатор кодека                     : M4A
Размер файла                             : 32,5 Мбайт
Продолжительность                        : 4 м. 18 с.
Режим общего битрейта                    : Переменный
Общий поток                              : 1054 Кбит/сек
Альбом                                   : Армагеддон
Альбом/Исполнитель                       : Ария
Трек                                     : Свет былой любви
Трек/Положение                           : 9
Трек/Всего                               : 10
Исполнитель                              : Ария
Жанр                                     : Heavy Metal
Дата записи                              : 2006
Дата пометки                             : UTC 2014-05-29 09:06:51
Программа кодирования                    : X Lossless Decoder 20140504, QuickTime 7.7.1
Обложка                                  : Yes
Примечание                               : ExactAudioCopy v0.99pb4
iTunes_CDDB_1                            : 7F0CDC0A+247090+10+150+22722+50139+71411+93431+114320+154833+180984+203753+223118
iTunes_CDDB_TrackNumber                  : 9

Аудио
Идентификатор                            : 1
Формат                                   : ALAC
Идентификатор кодека                     : alac
Идентификатор кодека/Информация          : Apple Lossless Audio Codec
Продолжительность                        : 4 м. 18 с.
Duration_LastFrame                       : -6 мс.
Вид битрейта                             : Переменный
Битрейт                                  : 1037 Кбит/сек
Каналы                                   : 2 канала
Частота                                  : 44,1 КГц
Битовая глубина                          : 16 бит
Размер потока                            : 31,9 Мбайт (98%)
Язык                                     : English
Дата пометки                             : UTC 2014-05-29 09:06:51

Общее
Полное имя                               : /Users/Denis/Library/Containers/net.mediaarea.mediainfo.mac/Data/Music/iTunes/iTunes Media/Music/Ария/Армагеддон/10 Твой день.m4a
Формат                                   : MPEG-4
Профиль формата                          : Apple audio with iTunes info
Идентификатор кодека                     : M4A
Размер файла                             : 40,6 Мбайт
Продолжительность                        : 5 м. 19 с.
Режим общего битрейта                    : Переменный
Общий поток                              : 1067 Кбит/сек
Альбом                                   : Армагеддон
Альбом/Исполнитель                       : Ария
Трек                                     : Твой день
Трек/Положение                           : 10
Трек/Всего                               : 10
Исполнитель                              : Ария
Жанр                                     : Heavy Metal
Дата записи                              : 2006
Дата пометки                             : UTC 2014-05-29 09:06:54
Программа кодирования                    : X Lossless Decoder 20140504, QuickTime 7.7.1
Обложка                                  : Yes
Примечание                               : ExactAudioCopy v0.99pb4
iTunes_CDDB_1                            : 7F0CDC0A+247090+10+150+22722+50139+71411+93431+114320+154833+180984+203753+223118
iTunes_CDDB_TrackNumber                  : 10

Аудио
Идентификатор                            : 1
Формат                                   : ALAC
Идентификатор кодека                     : alac
Идентификатор кодека/Информация          : Apple Lossless Audio Codec
Продолжительность                        : 5 м. 19 с.
Duration_LastFrame                       : -66 мс.
Вид битрейта                             : Переменный
Битрейт                                  : 1052 Кбит/сек
Каналы                                   : 2 канала
Частота                                  : 44,1 КГц
Битовая глубина                          : 16 бит
Размер потока                            : 40,1 Мбайт (99%)
Язык                                     : English
Дата пометки                             : UTC 2014-05-29 09:06:54
Код: выделить все

-----------------------

DON'T MODIFY THIS FILE

-----------------------

PERFORMER: auCDtect Task Manager, ver. 1.6.0 RC1 build 1.6.0.1
Copyright (c) 2008-2010 y-soft. All rights reserved
http://y-soft.org

ANALYZER: auCDtect: CD records authenticity detector, version 0.8.2
Copyright (c) 2004 Oleg Berngardt. All rights reserved.
Copyright (c) 2004 Alexander Djourik. All rights reserved.

FILE: 10 Твой день.m4a
  Size: 42610804 Hash: B8CB0D4459C86B6406E67A9C5788384F Accuracy: -m8
  Conclusion: CDDA 100%
  Signature: 68D42E11D8619D9F28E556490162295DDC945953
FILE: 09 Свет былой любви.m4a
  Size: 34028393 Hash: C91EC46F5F0DEDE788B2A764095BA71B Accuracy: -m8
  Conclusion: CDDA 100%
  Signature: DDF3D051174706395B1B405FC4D0FAE0DFA21109
FILE: 08 Чужой.m4a
  Size: 39831825 Hash: 148844024497DFB86AE0BE7367ED2A87 Accuracy: -m8
  Conclusion: CDDA 100%
  Signature: 3C370300D56CC2E3158B33D21DC9B639D30DFD1B
FILE: 07 Викинг.m4a
  Size: 45219098 Hash: CF5204C5239D6C87BA104BBDC12F6410 Accuracy: -m8
  Conclusion: CDDA 100%
  Signature: 432AC84BECCA22771B9B51909A494FCCC6A63F95
FILE: 06 Кровь королей.m4a
  Size: 69419908 Hash: 0E074D3634A800D733D0B02B02FBDBEF Accuracy: -m8
  Conclusion: CDDA 100%
  Signature: 81C1B41E58B6E98400339D342E3D4857A766F751
FILE: 05 Мессия.m4a
  Size: 39066261 Hash: F7BB657DED9100D6E5F632B5D577A807 Accuracy: -m8
  Conclusion: CDDA 100%
  Signature: 724CDB8F6A03C89BEBE1C84DB3A579C6C4FA918D
FILE: 04 Новый крестовый поход.m4a
  Size: 39537053 Hash: 9ED578241E3A0F4483AB94A8BFD8EF99 Accuracy: -m8
  Conclusion: CDDA 100%
  Signature: 1659AEAE776C9C8DAD62AF7F104FFD2AED00877D
FILE: 03 Страж империи.m4a
  Size: 37122017 Hash: 930D9FB277C092C40624F42934139633 Accuracy: -m8
  Conclusion: CDDA 100%
  Signature: FC132A26386CA2CF6451B489A2245EF7F6E13C18
FILE: 02 Меченый злом.m4a
  Size: 50477710 Hash: 3DC6D74A6DDA3DE21BE3EDE014FABA9B Accuracy: -m8
  Conclusion: CDDA 100%
  Signature: 9FA6B4063792DF2941CFE2FECB46D5A574C5A3D0
FILE: 01 Последний закат.m4a
  Size: 42150066 Hash: 7E48531747CE37729EE3D05F4AB58C39 Accuracy: -m8
  Conclusion: CDDA 100%
  Signature: 02EFC7D9394DCE69A75BF0137A45D680D88075D7

Все номерные альбомы группы АРИЯ в ALAC/Lossless/Tracks:
1. Мания величия (1985 год)
2. C кем ты (1986 год)
3. Герой асфальта (1987 год)
4. Игра с огнем (1989 год)
5. Кровь за кровь (1991 год)
6. Ночь короче дня (1995 год)
7. Генератор зла (1998 год)
8. Химера (2001 год)
9. Крещение огнем (2003 год)
10. Армагеддон (2006 год)
11. Феникс (2011 год)


Все альбомы (номерные, концертные, синглы трибьюты и сборники) группы АРИЯ в ALAC

Время раздачи: с 20:00 до 03:00 постоянно / часто 24/7
[NNM-Club.me]_Ariya (2006) Armageddon.torrent
 Торрент: Платиновая раздача  Зарегистрирован
 
Скачать


Примагнититься
 Зарегистрирован:   30 Май 2014 12:02:13
 Размер:   419 MB  (
 Рейтинг:   4.7 (Голосов: 52)
 Поблагодарили:   130
 Проверка:   Оформление проверено модератором 30 Май 2014 14:53:05
Как cкачать  ·  Как раздать  ·  Правильно оформить  ·  Поднять ратио!  
sm0101
Стаж: 11 лет 1 мес.
Сообщений: 16
Ratio: 31.813
100%
Встаньте на раздачу пожалуйста
Показать сообщения:   
Начать новую тему   Ответить на тему    Торрент-трекер NNM-Club -> Аудио и Видео -> Музыка Lossless (ALAC) Часовой пояс: GMT + 3
Страница 1 из 1